Browse Collections Artists Sources   Search Dates

Add Show    List Management    Help


New Riders of the Purple Sage 02/28/71
Fillmore West, San Francisco, CA
Comments Add Comment    Source Collectors    Add to Collection    Add to Want List    History
Source # 95481 Other Sources
Entered by Scott
Checksums ffp , md5
Disc Counts 1 / 2
Media Size
Date Circulated
Date Added
10/24/2008
10/28/2008
Source Summary SBD:mR>R1>R2 @ 3.75 ips > DAT > ? > CDR > EAC > FLAC 
Source Information - Download Text | Download Zip
New Riders Of The Purple Sage
Fillmore West
San Francisco, CA
02-28-71

(Rip of cdr's that appear to match shn id 80719 - thus making the step from DAT to CDR unknown)

SBD:mR>R1>R2 @ 3.75 ips > DAT > ? > CDR > EAC > FLAC(level 8)

Disk 1
1.  Workingman's Blues
2.  I Don't Know You
3.  Superman
4.  Tonight The Bottle Let Me Down
5.  Henry
6.  Only Daddy That'll Walk The Line
7.  Fair Chance To Know
8.  All I Ever Wanted
9.  Truck Driving Man
10. Long Black Limousine
11. Sailin'
12. Lodi
13. Portland Woman

Disk 2
1.  Glendale Train
2.  Dirty Business
3.  Lochinvar
4.  Last Lonely Eagle

w/ Jerry Garcia & David LaFlamme (violin)

shntool 3.0.4
Copyright (C) 2000-2007 Jason Jordan

    length     expanded size    cdr  WAVE problems  fmt   ratio  filename
     5:13.51       55333196 B   ---   --   ---xx   flac  0.4541  nrps71-02-28d1t01.flac
     5:21.53       56749100 B   ---   --   ---xx   flac  0.4243  nrps71-02-28d1t02.flac
     4:23.27       46456748 B   ---   --   ---xx   flac  0.4163  nrps71-02-28d1t03.flac
     5:04.18       53667980 B   ---   --   ---xx   flac  0.4578  nrps71-02-28d1t04.flac
     5:23.37       57064268 B   ---   --   ---xx   flac  0.4296  nrps71-02-28d1t05.flac
     3:55.56       41585756 B   ---   --   ---xx   flac  0.4686  nrps71-02-28d1t06.flac
     4:34.27       48397148 B   ---   --   ---xx   flac  0.4637  nrps71-02-28d1t07.flac
     9:00.42       95354828 B   ---   --   ---xx   flac  0.4656  nrps71-02-28d1t08.flac
     4:15.05       44993804 B   ---   --   ---xx   flac  0.5303  nrps71-02-28d1t09.flac
     4:26.25       46981244 B   ---   --   ---xx   flac  0.4491  nrps71-02-28d1t10.flac
     4:37.57       48996908 B   ---   --   ---xx   flac  0.4897  nrps71-02-28d1t11.flac
     4:56.40       52308524 B   ---   --   ---xx   flac  0.5118  nrps71-02-28d1t12.flac
     6:01.45       63786284 B   ---   --   ---xx   flac  0.5048  nrps71-02-28d1t13.flac
     6:16.60       66467564 B   ---   --   ---xx   flac  0.4937  nrps71-02-28d2t01.flac
    10:23.00      109897244 B   ---   --   ---xx   flac  0.5058  nrps71-02-28d2t02.flac
     3:53.72       41270588 B   ---   --   ---xx   flac  0.4700  nrps71-02-28d2t03.flac
     6:27.71       68433836 B   ---   --   ---xx   flac  0.4918  nrps71-02-28d2t04.flac
    94:16.11      997745020 B                            0.4744  (17 files)


Show Checksums
ffp
nrps71-02-28d1t01.flac:94a975823afc5c0195f7fd2e1665eb50
nrps71-02-28d1t02.flac:9bdda39bf501f153b513c93f5bf55381
nrps71-02-28d1t03.flac:7bc6f174fb14d623b2012dde6169e988
nrps71-02-28d1t04.flac:7a4a963881b70da8c81977d330907035
nrps71-02-28d1t05.flac:2dca934895a73b49d21d22bf812ef34a
nrps71-02-28d1t06.flac:e3dc0ecaf9d5d62816ce20b86e608125
nrps71-02-28d1t07.flac:25a1d960c74801982d0d07492287d5ba
nrps71-02-28d1t08.flac:ae151644f94bdbf5dd3c82fba882c677
nrps71-02-28d1t09.flac:34148ac3d7ce66398bccd7d934fe4399
nrps71-02-28d1t10.flac:5d8e9db6fecddb39b16898a618aa0eb6
nrps71-02-28d1t11.flac:970274689185e42e380ae3168e06fd07
nrps71-02-28d1t12.flac:e1c9d34ab515e1004c8efdd817b11178
nrps71-02-28d1t13.flac:dc7d7a074123ac6d987cf1aa7b638ace
nrps71-02-28d2t01.flac:268dd289c2995bc6327bc1ae166b79ce
nrps71-02-28d2t02.flac:5aff0f48fc8c86e507c5cc2350cff485
nrps71-02-28d2t03.flac:bf92c35f9bc8743565264c3087dd0cbf
nrps71-02-28d2t04.flac:b1ea14b76748b5ca18e8a851e2036748
md5
c78acda1276232a3ed19392fc05d1394 *nrps71-02-28d1t01.flac
d4817cf6de7c4a541d59f8faddb2cd56 *nrps71-02-28d1t02.flac
2c8cdcd629618c644b75e4e97fb02739 *nrps71-02-28d1t03.flac
578c96750e83dc9104739e012d1de6c3 *nrps71-02-28d1t04.flac
0445c72a2407f706eb64a5c6ff3f2122 *nrps71-02-28d1t05.flac
5b3f6e266f435b33f713562126acedd0 *nrps71-02-28d1t06.flac
e4ac7b1f611a2ee9ba6e7c23fd22b7d0 *nrps71-02-28d1t07.flac
3893ef704d91e3ff44912becdb865601 *nrps71-02-28d1t08.flac
d13f821c3d33fc30fd9e25281f8933a1 *nrps71-02-28d1t09.flac
8773ce3adf0e57f73e3b05184ee4978f *nrps71-02-28d1t10.flac
2ee1336394e0276780071652d342849c *nrps71-02-28d1t11.flac
c2a7bb9afcfc8a58616aadb83dc671bf *nrps71-02-28d1t12.flac
fb1f701ce447412e426ff3022e406501 *nrps71-02-28d1t13.flac
7710b50847e58e5edd5db9f271abbd62 *nrps71-02-28d2t01.flac
5dd1866437d71e70faa74e12cd454fb1 *nrps71-02-28d2t02.flac
c7f3fb4ec9aef079b5fd2ba6908e0197 *nrps71-02-28d2t03.flac
a02534c2d8d298b0ed9586b36ba50658 *nrps71-02-28d2t04.flac

Comments
Add Comment
Other Sources (comments)
SBD:mR>R1>R2 @ 3.75 ips >... (0)
Date User Comment