Browse Collections Artists Sources   Search Dates

Add Show    List Management    Help


Grateful Dead 09/04/80
Providence Civic Center, Providence, RI
Comments Add Comment    Source Collectors    Add to Collection    Add to Want List    History
Source # 95497 Other Sources
Entered by dr.unclear
Checksums flac-md5 , ffp
Disc Counts 2 / 2
Media Size
Date Circulated
Date Added
10/28/2008
10/29/2008
Source Summary flac16; Recording Info:Set 1: SBD -> Master Cassette -> ? -> Dat -> CD; Set 2: SBD -> Master Cassette -> Dat -> CD; Transfer Info: CD -> Adobe Audition v1.5 -> Samplitude Professional v10.1 -> FLAC; All Transfers and Mastering By Charlie Miller 
  Archive
Source Information - Download Text | Download Zip
Grateful Dead - September 4, 1980
Civic Center - Providence, RI

Recording Info:
Set 1: SBD -> Master Cassette -> ? -> Dat -> CD
Set 2: SBD -> Master Cassette -> Dat -> CD

Transfer Info:
CD -> Adobe Audition v1.5 -> Samplitude Professional v10.1 -> FLAC
(2 Discs Audio / 2 Discs FLAC)

All Transfers and Mastering By Charlie Miller
[email protected]
October 29, 2008

Patch Info:
Nakamichi 700 -> Master Cassette (shnid=93752) supplies:
Althea (8:34 - end of track)
Looks Like Rain (0:00 - 0:37)
Supplication (0:00 - 0:21)
Drums (3:59 - 4:17)
Good Lovin' (4:47 - 5:10)

SBD -> Master Cassette -> Reel -> Dat -> CD (shnid=20014) supplies:
Samson And Delilah (complete track)
Ramble On Rose (complete track)

Notes:
-- Disc change is seamless
-- Thanks to Joe B. Jones for his help with the pitch correction

Set 1:
d1t01 - Feel Like A Stranger
d1t02 - Peggy-O
d1t03 - Cassidy
d1t04 - Dire Wolf
d1t05 - New Minglewood Blues
d1t06 - Althea
d1t07 - Looks Like Rain
d1t08 - Far From Me
d1t09 - China Cat Sunflower ->
d1t10 - I Know You Rider

Set 2:
d1t11 - Samson And Delilah
d1t12 - Ramble On Rose
d2t01 - Supplication Jam ->
d2t02 - Estimated Prophet ->
d2t03 - Eyes Of The World ->
d2t04 - Drums ->
d2t05 - Space ->
d2t06 - The Other One ->
d2t07 - Wharf Rat ->
d2t08 - Goin' Down The Road Feeling Bad ->
d2t09 - Good Lovin'

Encore:
d2t10 - U.S. Blues


SHNTOOL OUTPUT:
    length     expanded size   cdr  WAVE problems filename
     7:33.15       79944524    ---   --   -----   gd80-09-04d1t01.wav
     7:00.01       74090396    ---   --   -----   gd80-09-04d1t02.wav
     5:02.34       53352812    ---   --   -----   gd80-09-04d1t03.wav
     3:56.33       41708060    ---   --   -----   gd80-09-04d1t04.wav
     7:12.51       76324796    ---   --   -----   gd80-09-04d1t05.wav
     8:44.04       92443052    ---   --   -----   gd80-09-04d1t06.wav
     8:24.07       88922108    ---   --   -----   gd80-09-04d1t07.wav
     4:39.46       49323836    ---   --   -----   gd80-09-04d1t08.wav
     5:29.21       58085036    ---   --   -----   gd80-09-04d1t09.wav
     6:03.15       64068524    ---   --   -----   gd80-09-04d1t10.wav
     6:56.15       73417724    ---   --   -----   gd80-09-04d1t11.wav
     7:27.22       78902588    ---   --   -----   gd80-09-04d1t12.wav
     4:49.20       51026684    ---   --   -----   gd80-09-04d2t01.wav
    10:17.07      108855308    ---   --   -----   gd80-09-04d2t02.wav
     7:55.71       83957036    ---   --   -----   gd80-09-04d2t03.wav
    11:13.67      118874828    ---   --   -----   gd80-09-04d2t04.wav
     6:11.32       65519708    ---   --   -----   gd80-09-04d2t05.wav
     8:17.48       87783740    ---   --   -----   gd80-09-04d2t06.wav
     9:37.68      101942780    ---   --   -----   gd80-09-04d2t07.wav
     6:41.25       70795244    ---   --   -----   gd80-09-04d2t08.wav
     8:12.71       86955836    ---   --   -----   gd80-09-04d2t09.wav
     5:18.42       56194028    ---   --   -----   gd80-09-04d2t10.wav
   157:04.40     1662488648 B                     (totals for 22 files)
Show Checksums
flac-md5
7b3ae07d388cc7762d71dcdba4130e14 *gd80-09-04d1t01.flac
54fc311f52e4a191475d2145d0c29fbc *gd80-09-04d1t02.flac
afa07333f343f1409b587eef8681e5da *gd80-09-04d1t03.flac
c6243c5ca6ebb1272344ea0e498b5c93 *gd80-09-04d1t04.flac
0e6e4511875f3bb233f9764e20187b89 *gd80-09-04d1t05.flac
40820b48362092ba4b4b213d8a151347 *gd80-09-04d1t06.flac
1cee15b5e7cfe68f98766aa7604cf180 *gd80-09-04d1t07.flac
df1d89cdf54885169ab117290e2e488d *gd80-09-04d1t08.flac
dfbf98a62d8d14ae2d318072c2dd53de *gd80-09-04d1t09.flac
15b5d9a80fb946e86ebd0de4cbccdfe0 *gd80-09-04d1t10.flac
34483f4bb29965aefeb6eb7cba8aca51 *gd80-09-04d1t11.flac
4c67179440d51c3ad22a55aeb6e92b22 *gd80-09-04d1t12.flac
5316e45ea97ffc033aa35da34cba48aa *gd80-09-04d2t01.flac
5903c632b769ca87336a7e9be2d93a3f *gd80-09-04d2t02.flac
55b25170f06804bda6677babd2f3b2f4 *gd80-09-04d2t03.flac
329a3ea7678208f10987c4492204ab4b *gd80-09-04d2t04.flac
e7951c36c8c5c19f0fb166801e9fb817 *gd80-09-04d2t05.flac
ac14840ff2c89796d0576b7be24171e3 *gd80-09-04d2t06.flac
c619d18010b331df2c3af461f7fbcd4d *gd80-09-04d2t07.flac
635f2255c109d2c15c6abec70c5aa74d *gd80-09-04d2t08.flac
7f3bd7ada6a3203306a0130f24f74965 *gd80-09-04d2t09.flac
d7bce54761d02fe95be8af2d185262be *gd80-09-04d2t10.flac
ffp
gd80-09-04d1t01.flac:5caddc272eda64141df61e34f1a37558
gd80-09-04d1t02.flac:44b5fcbdd5a7e85d7a11125f7d585db5
gd80-09-04d1t03.flac:3928a51e799b2307f3322ce15d7e19ce
gd80-09-04d1t04.flac:64e2ce5e8923c46c86e2902c059b801e
gd80-09-04d1t05.flac:01c160665d4f46f07fe417b1623e4af5
gd80-09-04d1t06.flac:2d8671e6f7d285dcd3760009b013b121
gd80-09-04d1t07.flac:07191c8f605edd8c1476808ce47ff710
gd80-09-04d1t08.flac:1ba0dc0ef3f4ee3f9e5508ecd4812dd2
gd80-09-04d1t09.flac:f855288d04faf513d6c7df23a97446fc
gd80-09-04d1t10.flac:37eb25a110dcc1ffcd06e4b19e2b84d6
gd80-09-04d1t11.flac:96e47435f55aab21b44e3a2a3a02af7f
gd80-09-04d1t12.flac:d3a27f7462207aa70e2e2e590bb04df6
gd80-09-04d2t01.flac:095be76a9c0b2bec5b22254da8e2bfd2
gd80-09-04d2t02.flac:0948f0460f68a8c60c7736e586a0bcd6
gd80-09-04d2t03.flac:7e9148dcb93fcb5407d07332ed23bf26
gd80-09-04d2t04.flac:4c254ac7d7c8ae57fb4c872a9f91b4c0
gd80-09-04d2t05.flac:90814b16f5b6c34072930c9a485b5f44
gd80-09-04d2t06.flac:7ba4107cc7e99736d2e599fec98890f1
gd80-09-04d2t07.flac:be2c52389c3a11b515c9f3176ef7c156
gd80-09-04d2t08.flac:652660da7372aea8ff528bf9f403709b
gd80-09-04d2t09.flac:b6306cda06a9ebab2706345cb4500c13
gd80-09-04d2t10.flac:372bd05d34c873c31a8db795e11afe35

Comments
Add Comment
Other Sources (comments)
AUD>MC>DAT>SF>CD;... (0) Set 1... (0) Set 2 Soundboard Cassette... (2) Recording by Jim Wise: FOB... (0) flac16; Recording... (0) flac16; Matrix by... (0) flac16; Nakamichi... (0) flac24; FOB AUD: 2x... (2) flac16; FOB AUD: 2x... (2) flac24; Nakamichi... (0) flac24; Recording by... (1)
Date User Comment