Browse Collections Artists Sources   Search Dates

Add Show    List Management    Help


Grateful Dead 09/26/91
Boston Garden, Boston, MA
Comments Add Comment    Source Collectors    Add to Collection    Add to Want List    History
Source # 95534 Other Sources
Entered by dr.unclear
Checksums ffp , flac-md5
Disc Counts 2 / 3
Media Size
Date Circulated
Date Added
10/30/2008
10/30/2008
Source Summary flac16; Recording Info: SBD -> Dat -> Cassette Master (TDK SA-X100); Transfer Info: Cassette Master (Sony TC-WE475) -> Apogee MiniMe (24bit/48k) -> Samplitude Professional v7.02 -> FLAC/16; All Transfers and Mastering By Charlie Miller 
  Archive
Source Information - Download Text | Download Zip
Grateful Dead - September 26, 1991
Boston Garden - Boston, MA

Recording Info:
SBD -> Dat -> Cassette Master (TDK SA-X100)

Transfer Info:
Cassette Master (Sony TC-WE475) -> Apogee MiniMe (24bit/48k) ->
Samplitude Professional v7.02 -> FLAC/16
(3 Discs Audio / 2 Discs FLAC)

All Transfers and Mastering By Charlie Miller
[email protected]
October 28, 2008

Notes:
-- Set 2 is seamless
-- This is a re-master of shnid=76050
-- Two cassette masters were used to make this show complete
-- Thanks to Joe B. Jones for his help with the pitch correction

Set 1:
d1t01 - Tuning
d1t02 - Jack Straw ->
d1t03 - Cold Rain And Snow
d1t04 - Wang Dang Doodle
d1t05 - Candyman
d1t06 - Mexicali Blues ->
d1t07 - Cumberland Blues
d1t08 - Picasso Moon ->
d1t09 - Box Of Rain

Set 2:
d2t01 - Tuning
d2t02 - Dark Star ->
d2t03 - Saint Of Circumstance ->
d2t04 - Eyes Of The World ->
d2t05 - Drums ->
d3t01 - Space ->
d3t02 - The Other One ->
d3t03 - Dark Star ->
d3t04 - Attics Of My Life ->
d3t05 - Good Lovin'

Encore:
d3t06 - Brokedown Palace ->
d3t07 - And We Bid You Good Night


SHNTOOL OUTPUT:
    length     expanded size   cdr  WAVE problems filename
     5:07.70       54319484    ---   --   -----   gd91-09-26d1t01.wav
     5:47.33       61288460    ---   --   -----   gd91-09-26d1t02.wav
     9:23.47       99423788    ---   --   -----   gd91-09-26d1t03.wav
     9:44.15      103052924    ---   --   -----   gd91-09-26d1t04.wav
    10:19.06      109205756    ---   --   -----   gd91-09-26d1t05.wav
     5:37.22       59498588    ---   --   -----   gd91-09-26d1t06.wav
     7:45.03       82033100    ---   --   -----   gd91-09-26d1t07.wav
     6:41.21       70785836    ---   --   -----   gd91-09-26d1t08.wav
     4:57.17       52430828    ---   --   -----   gd91-09-26d1t09.wav
     2:09.52       22877948    ---   --   -----   gd91-09-26d2t01.wav
    13:16.64      140564972    ---   --   -----   gd91-09-26d2t02.wav
     6:40.23       70614140    ---   --   -----   gd91-09-26d2t03.wav
    12:43.22      134644988    ---   --   -----   gd91-09-26d2t04.wav
    12:07.74      128416892    ---   --   -----   gd91-09-26d2t05.wav
     7:46.48       82315340    ---   --   -----   gd91-09-26d3t01.wav
     7:31.27       79619948    ---   --   -----   gd91-09-26d3t02.wav
     6:18.06       66693356    ---   --   -----   gd91-09-26d3t03.wav
     5:44.50       60799244    ---   --   -----   gd91-09-26d3t04.wav
     7:54.62       83759468    ---   --   -----   gd91-09-26d3t05.wav
     5:28.05       57871004    ---   --   -----   gd91-09-26d3t06.wav
     2:57.34       31302812    ---   --   -----   gd91-09-26d3t07.wav
   156:02.26     1651518876 B                     (totals for 21 files)
Show Checksums
ffp
gd91-09-26d1t01.flac:ccabfd1e881231c3c97a78e7735314ea
gd91-09-26d1t02.flac:9e9018ada0fbb96070e159c241a18517
gd91-09-26d1t03.flac:00f4a354c70cd12977d92ae2d7a81efa
gd91-09-26d1t04.flac:2217d50bef0f555df9aa842ac35d7cf0
gd91-09-26d1t05.flac:c0d392759b75f1888d1bcb2e4a7988bd
gd91-09-26d1t06.flac:be3f3396b5342e8c8bcb18b113dae17f
gd91-09-26d1t07.flac:2e3dc7a4387e72bf474741cf0a3312ee
gd91-09-26d1t08.flac:1e006a01a6960d3a6908feefd0aa2bae
gd91-09-26d1t09.flac:f27bc8e7326fd27a149d79705f888a76
gd91-09-26d2t01.flac:3ec0a49b50aa1be88a361b11931bac39
gd91-09-26d2t02.flac:5bead5e8e97b36e115042c668d98f87b
gd91-09-26d2t03.flac:2bd27532ee3c17ce60f2f5dd2220b127
gd91-09-26d2t04.flac:c7b14a942b6849ca23494c9b4f9c4bc5
gd91-09-26d2t05.flac:17243957dbb75d5b4d23eeb1070212ec
gd91-09-26d3t01.flac:63d8f44b758e2c7900696a2c016b224f
gd91-09-26d3t02.flac:c9325466ee5b2406951e53b34ed3536a
gd91-09-26d3t03.flac:73c31ebeb0b02f6331dfcf4d7b4bf814
gd91-09-26d3t04.flac:e4f7ae3173ebe0176419013b8cbbe9a0
gd91-09-26d3t05.flac:a31ecf712642c9744966754138921a1c
gd91-09-26d3t06.flac:39122b3f5c5e0b792c1a2ad4b66e7e1a
gd91-09-26d3t07.flac:c4f6548201b63b82ba602f8dd352e6ed
flac-md5
664dbc33558e3ffb84aeaa8377dbb446 *gd91-09-26d1t01.flac
b115404cd8b7f5dead33b3f8dda38c04 *gd91-09-26d1t02.flac
249afdf56400c20f713e9f465175560a *gd91-09-26d1t03.flac
76137b3d2b590739a209501fe1c91e66 *gd91-09-26d1t04.flac
5970b8e6bb463c7c2ca823935263e253 *gd91-09-26d1t05.flac
94f228ad0a0578a4dfd778ca10754ce8 *gd91-09-26d1t06.flac
dc9476c3288eb82f52f691391023b123 *gd91-09-26d1t07.flac
f3b8aa5dcba2eef840fd538e0e3b4a50 *gd91-09-26d1t08.flac
27ef4742fcbe27c55a22bb493c78ea2d *gd91-09-26d1t09.flac
c4fd34f8403e459dbbf4ab2cc283b385 *gd91-09-26d2t01.flac
b086111275a38871a7de7ae9cc951f5d *gd91-09-26d2t02.flac
3391ea12528c4c009cde49a54be2b568 *gd91-09-26d2t03.flac
fb9486f9d8bd4b8e1f135301301bc476 *gd91-09-26d2t04.flac
2327d1a05674c2d7e2a0097f67c4dd6c *gd91-09-26d2t05.flac
3b0e2651b87f56b0decba2bdcd62a4e2 *gd91-09-26d3t01.flac
a9ae858e8f373d8b03f95389578d0da8 *gd91-09-26d3t02.flac
46a0be095a3089d04ab7373889edd300 *gd91-09-26d3t03.flac
f76bf259534d9f8e65a85b532b05e764 *gd91-09-26d3t04.flac
f44cfb2fe7aa0278e9d9090722409382 *gd91-09-26d3t05.flac
75fd9d762a27145732a2c51e5c893436 *gd91-09-26d3t06.flac
d74dd0936c8542e06654a19fb6e16a8a *gd91-09-26d3t07.flac

Comments
Add Comment
Other Sources (comments)
SBD> MC> DAT> CDA; high... (1) SBD(1)>DAT>CD>EAC>CDWAVE>MK... (6) flac16/48; Set 2... (0) flac16; Set 2 only -... (1) flac16; Recording... (0) flac16; AUD Source:... (0) flac16/48; AUD... (0) flac16; Sennheiser... (0) flac16; Matrix by... (0) flac16; Lineage:... (0) flac16; Matrix of... (0) DTS Audio 5.1; Mix... (0) flac24; Master... (0) flac16; Master... (0) flac24; Master... (0) flac16; Master... (0) flac16; DSBD Masters... (0) flac16/48kHz;... (0)
Date User Comment
12/17/2008 charlie miller Adobe Audition was used for the pitch correction.