Browse Collections Artists Sources   Search Dates

Add Show    List Management    Help


Grateful Dead 09/04/80
Providence Civic Center, Providence, RI
Comments Add Comment    Source Collectors    Add to Collection    Add to Want List    History
Source # 95601 Other Sources
Entered by dr.unclear
Checksums ffp , flac-md5
Disc Counts 2 / 3
Media Size
Date Circulated
Date Added
11/02/2008
11/02/2008
Source Summary flac16; Matrix by Hunter Seamons using Final Cut Pro (FLAC>AIFF>Final Cut>WAV>FLAC) 
  Archive
Source Information - Download Text | Download Zip
Grateful Dead
Civic Center
Providence, RI
September 4, 1980


*Matrix*

----------------------------------------------------
SBD (shnid=95497):

Recording Info:
Set 1: SBD -> Master Cassette -> ? -> Dat -> CD
Set 2: SBD -> Master Cassette -> Dat -> CD

Transfer Info:
CD -> Adobe Audition v1.5 -> Samplitude Professional v10.1 -> FLAC
(2 Discs Audio / 2 Discs FLAC)

All Transfers and Mastering By Charlie Miller
[email protected]
October 29, 2008

Patch Info:
Nakamichi 700 -> Master Cassette (shnid=93752) supplies:
Althea (8:34 - end of track)
Looks Like Rain (0:00 - 0:37)
Supplication (0:00 - 0:21)
Drums (3:59 - 4:17)
Good Lovin' (4:47 - 5:10)

SBD -> Master Cassette -> Reel -> Dat -> CD (shnid=20014) supplies:
Samson And Delilah (complete track)
Ramble On Rose (complete track)

Notes:
-- Disc change is seamless
-- Thanks to Joe B. Jones for his help with the pitch correction

----------------------------------------------------
AUD (shnid=93752):

Recording Info:
(FOB) Nakamichi 700 -> Master Cassette (Sony D5/Maxell UDXL-I/Dolby B)

Transfer Info:
Master Cassette (Nakamichi DR-1/Dolby B) -> Sound Devices 744T (24bit/88.2k) ->
Samplitude Professional v10.1 -> FLAC/16
(3 Discs Audio / 2 Discs FLAC)

All Transfers and Mastering By Charlie Miller
[email protected]
August 1, 2008

Patch Info:
(FOB) Sony ECM-280 -> Master Cassette -> CD (shnid=24829) supplies:
Space (0:24 - 0:32)
Goin' Down The Road Feeling Bad (5:46 - 5:57)

Notes:
-- Set 2 is seamless
-- Thanks to Steve Rolfe for lending me his masters
---------------------------------------------------
Thank you to Charlie Miller for the SBD and AUD transfers,
and to Steve Rolfe for recording the show.

Matrix by Hunter Seamons using Final Cut Pro (FLAC>AIFF>Final Cut>WAV>FLAC)
November 2, 2008


Set I
-----
d1t01 - Tuning
d1t02 - Feel Like A Stranger
d1t03 - Peggy-O
d1t04 - Cassidy
d1t05 - Dire Wolf
d1t06 - New Minglewood Blues
d1t07 - Althea
d1t08 - Looks Like Rain
d1t09 - Far From Me
d1t10 - China Cat Sunflower ->
d1t11 - I Know You Rider

Set II
-----
d2t01 - Tuning
d2t02 - Samson And Delilah
d2t03 - Ramble On Rose
d2t04 - Supplication Jam ->
d2t05 - Estimated Prophet ->
d2t06 - Eyes Of The World ->
d2t07 - Drums ->
d3t01 - Space ->
d3t02 - The Other One ->
d3t03 - Wharf Rat ->
d3t04 - Goin' Down The Road Feeling Bad ->
d3t05 - Good Lovin'

Encore
------
d3t06 - U.S. Blues


Notes:

1) Fades were used to create a "seamless" AUD track (i.e., no AUD "gaps" despite cuts made to the SBD source). This allows the listener to remain always in "audience" mode and to not be suddenly teleported into "lonely and bleak studio" mode.  

2) Due to weirdness and high hiss at the very beginning of Stranger in the SBD, I opted to have only the AUD play, which is "consistent" with the other set-opening SBD cut at the beginning of Samson. I also experienced extreme weirdness in the SBD at the tail-end of Althea, so I faded to AUD-only there.

3) The 2 SBD sources used before Supplication seem to have a little more hiss and are less optimal than the "SBD -> Master Cassette -> Dat -> CD" source.

4) The shnid=24829 AUD patches were maintained (re-synced) for the matrix, so there is a slight tonal difference during those moments. Miller's nice cross-fades for the patches were kept intact (thus maintaining the "seamless" AUD track). The SBD patches were redone for matrix purposes (as I do most of the time).

5) 1 Miller SBD Source + 1 Miller AUD Source = 1 Just Exactly Perfect MTX Source


    length     expanded size    cdr  WAVE problems  fmt   ratio  filename
     2:09.67       22913228 B   ---   --   ---xx  gd80-09-04d1t01.flac
     7:34.19       80130332 B   ---   --   ---xx  gd80-09-04d1t02.flac
     6:06.62       64708268 B   ---   --   ---xx  gd80-09-04d1t03.flac
     5:01.60       53237564 B   ---   --   ---xx  gd80-09-04d1t04.flac
     4:16.42       45257228 B   ---   --   ---xx  gd80-09-04d1t05.flac
     7:05.27       75033548 B   ---   --   ---xx  gd80-09-04d1t06.flac
     8:45.12       92638268 B   ---   --   ---xx  gd80-09-04d1t07.flac
     9:36.51      101726396 B   ---   --   ---xx  gd80-09-04d1t08.flac
     4:48.29       50871452 B   ---   --   ---xx  gd80-09-04d1t09.flac
     5:32.25       58623644 B   ---   --   ---xx  gd80-09-04d1t10.flac
     6:08.02       64919948 B   ---   --   ---xx  gd80-09-04d1t11.flac
     0:48.47        8577788 B   ---   --   ---xx  gd80-09-04d2t01.flac
     7:07.39       75414572 B   ---   --   ---xx  gd80-09-04d2t02.flac
     7:58.44       84422732 B   ---   --   ---xx  gd80-09-04d2t03.flac
     4:35.50       48627644 B   ---   --   ---xx  gd80-09-04d2t04.flac
    10:17.06      108852956 B   ---   --   ---xx  gd80-09-04d2t05.flac
     7:56.09       83987612 B   ---   --   ---xx  gd80-09-04d2t06.flac
    11:14.15      118928924 B   ---   --   ---xx  gd80-09-04d2t07.flac
     6:11.28       65510300 B   ---   --   ---xx  gd80-09-04d3t01.flac
     8:17.55       87800204 B   ---   --   ---xx  gd80-09-04d3t02.flac
     9:37.61      101926316 B   ---   --   ---xx  gd80-09-04d3t03.flac
     6:41.22       70788188 B   ---   --   ---xx  gd80-09-04d3t04.flac
     8:24.01       88907996 B   ---   --   ---xx  gd80-09-04d3t05.flac
     5:22.65       56953724 B   ---   --   ---xx  gd80-09-04d3t06.flac
   161:38.13     1710758832 B                            0.5882  (24 files)
Show Checksums
ffp
gd80-09-04d1t01.flac:d998f091af1001dac9ca886e70a6a7f5
gd80-09-04d1t02.flac:47fde6d7722ce25da0f98cd9b131fdd8
gd80-09-04d1t03.flac:ad77aefe10c20d8c12ab0fa931202fd8
gd80-09-04d1t04.flac:9a35954a7201346019d98e6518849b41
gd80-09-04d1t05.flac:a719d9f9d42f6a957a10ae7f0c106d57
gd80-09-04d1t06.flac:54ec668eb1a33acea5c750f78d29f17d
gd80-09-04d1t07.flac:05fb351940de7e75987bc57e84be186c
gd80-09-04d1t08.flac:376bf4e263ef235e0cac887e19ab135c
gd80-09-04d1t09.flac:91c53c26c0ee5cbc55eb2c70c03bfd89
gd80-09-04d1t10.flac:1db67c49679ead645e626c6511dc1399
gd80-09-04d1t11.flac:6b8ad917a36fbca25ba316b9eaa31b1c
gd80-09-04d2t01.flac:12f1ee2df163ba9dbf5e4ddd1c16aa4e
gd80-09-04d2t02.flac:eab5ef1851def9250d6907913b9b55fd
gd80-09-04d2t03.flac:7260e2de641c61ca969ab3acab5015ee
gd80-09-04d2t04.flac:fcc83fb7c4771d0a1414a681102b0fc5
gd80-09-04d2t05.flac:84e7ca74efc3f447cf8858b3a9897ece
gd80-09-04d2t06.flac:4cc030ae39551e30582582acff9c9169
gd80-09-04d2t07.flac:24248291e15e044248b4e9d38a2e9a7c
gd80-09-04d3t01.flac:a376f34344629be699ef4a3351ed4aab
gd80-09-04d3t02.flac:185995c419376cd4a316a4536c5a7a9d
gd80-09-04d3t03.flac:df5a88a35e76b6503a55f342960b0647
gd80-09-04d3t04.flac:fb2d299eabffcdfcb8209e6d36245f99
gd80-09-04d3t05.flac:9fbc34e793eb38b3e914ef9cf915fe6b
gd80-09-04d3t06.flac:1b36cda42025327b6872b9618e5d640f
flac-md5
8ecb4f7be308464f033d6cd40772c191 *gd80-09-04d1t01.flac
bf1c922eb223ad86b47631a54235d1fd *gd80-09-04d1t02.flac
57001e711c9d6d09bb094b35a2238211 *gd80-09-04d1t03.flac
b81cd1b230a791e780514f1c97fc4639 *gd80-09-04d1t04.flac
f0b7331dca19cc00c1596e72aa841b8d *gd80-09-04d1t05.flac
a2f774f27a2a0447eb7eaf96d9b1f7bb *gd80-09-04d1t06.flac
f49633f003df9ff27e7a1a1af469cd20 *gd80-09-04d1t07.flac
620277a0e80eaf11d768ed4b2a3af3ea *gd80-09-04d1t08.flac
e58a58c65b6f14f37f73d2bd920d3f7d *gd80-09-04d1t09.flac
50dc144b96b165d8eaf2cc8de653eca0 *gd80-09-04d1t10.flac
715d940bee9f0a391523cea5ff7dc108 *gd80-09-04d1t11.flac
6c1e92499cf5d0fbce4e07c33a366cb8 *gd80-09-04d2t01.flac
a670b934e118de467341765a68be6899 *gd80-09-04d2t02.flac
b371cab4e113df3c3d66e09add4a56bb *gd80-09-04d2t03.flac
fac8a07f0ee4c87e742169651ca947e6 *gd80-09-04d2t04.flac
7852a6c919a051a08d82bdcdc730e339 *gd80-09-04d2t05.flac
ab2dd9412eed46649c5543dfe0566fdf *gd80-09-04d2t06.flac
79e2a13443ff6d4a631689fa04487297 *gd80-09-04d2t07.flac
ba21b977b8fa7287629946c205277e23 *gd80-09-04d3t01.flac
72d9bf1fe3f7617ec8948fc8d32c3257 *gd80-09-04d3t02.flac
8d1e23765f9d975a0deb347f1d11fe21 *gd80-09-04d3t03.flac
d2653aa36ccbf698c68599c91d23c481 *gd80-09-04d3t04.flac
3335f2245949278d4fa1f1acd1ddaa3d *gd80-09-04d3t05.flac
20ed1b98b4aee6b1b0aa064717ff2f4f *gd80-09-04d3t06.flac

Comments
Add Comment
Other Sources (comments)
AUD>MC>DAT>SF>CD;... (0) Set 1... (0) Set 2 Soundboard Cassette... (2) Recording by Jim Wise: FOB... (0) flac16; Recording... (0) flac16; Recording... (0) flac16; Nakamichi... (0) flac24; FOB AUD: 2x... (2) flac16; FOB AUD: 2x... (2) flac24; Nakamichi... (0) flac24; Recording by... (1)
Date User Comment