Browse Collections Artists Sources   Search Dates

Add Show    List Management    Help


Grateful Dead 09/12/81
Greek Theatre, U. Of California, Berkeley, CA
Comments Add Comment    Source Collectors    Add to Collection    Add to Want List    History
Source # 95671 Other Sources
Entered by Gary Field
Checksums flac-md5 , ffp
Disc Counts 2 / 3
Media Size
Date Circulated
Date Added
11/07/2008
11/06/2008
Source Summary flac16; Recording Info:(FOB) Nakamichi 300/CP1 -> Cassette Master (Sony TC-D5M/Maxell UDXLII); Transfer Info:Cassette Master (Nakamichi DR-1) -> Sound Devices 744T (24bit/96k) -> Samplitude Professional v10.1 -> FLAC/16; Recoded by Joani Walker; All Transfers and Mastering By Charlie Miller 
  Archive
Source Information - Download Text | Download Zip
Grateful Dead - September 12, 1981
Greek Theatre - Berkeley, CA
University Of California

Recording Info:
(FOB) Nakamichi 300/CP1 -> Cassette Master (Sony TC-D5M/Maxell UDXLII)

Transfer Info:
Cassette Master (Nakamichi DR-1) -> Sound Devices 744T (24bit/96k) ->
Samplitude Professional v10.1 -> FLAC/16
(3 Discs Audio / 2 Discs FLAC)

All Transfers and Mastering By Charlie Miller
[email protected]
November 5, 2008

Patch Info:
Nakamichi 700 -> Cassette Master -> CD (shnid=23729) supplies:
C C Rider (0:00 - 0:41)
Eyes Of The World (15:51 - 16:22)
It's All Over Now, Baby Blue (0:00 - 0:04)

Notes:
-- All disc changes are seamless
-- Recorded by Joani Walker
-- Thanks to Paul Scotton and Joani Walker for the tapes

Set 1:
d1t01 - Shakedown Street
d1t02 - Greatest Story Ever Told
d1t03 - Friend Of The Devil ->
d1t04 - El Paso
d1t05 - Bird Song ->
d1t06 - Cassidy
d1t07 - Tennessee Jed ->
d1t08 - Looks Like Rain
d2t01 - China Cat Sunflower ->
d2t02 - I Know You Rider

Set 2:
d2t03 - Scarlet Begonias ->
d2t04 - Fire On The Mountain
d2t05 - C C Rider
d2t06 - Estimated Prophet ->
d2t07 - Eyes Of The World ->
d3t01 - Drums ->
d3t02 - Not Fade Away ->
d3t03 - Wharf Rat ->
d3t04 - Around And Around ->
d3t05 - One More Saturday Night

Encore:
d3t06 - It's All Over Now, Baby Blue
d3t07 - Good Lovin'


SHNTOOL OUTPUT:
    length     expanded size   cdr  WAVE problems filename
    14:42.06      155598956    ---   --   -----   gd81-09-12d1t01.wav
     4:15.04       44991452    ---   --   -----   gd81-09-12d1t02.wav
     8:39.34       91631612    ---   --   -----   gd81-09-12d1t03.wav
     5:22.45       56906684    ---   --   -----   gd81-09-12d1t04.wav
    10:55.45      115647884    ---   --   -----   gd81-09-12d1t05.wav
     8:46.19       92831132    ---   --   -----   gd81-09-12d1t06.wav
     7:56.35       84048764    ---   --   -----   gd81-09-12d1t07.wav
     8:49.06       93329756    ---   --   -----   gd81-09-12d1t08.wav
     6:55.13       73236620    ---   --   -----   gd81-09-12d2t01.wav
     6:25.12       67942268    ---   --   -----   gd81-09-12d2t02.wav
    12:14.06      129491756    ---   --   -----   gd81-09-12d2t03.wav
    13:04.23      138351740    ---   --   -----   gd81-09-12d2t04.wav
    10:17.46      108947036    ---   --   -----   gd81-09-12d2t05.wav
    10:56.60      115859564    ---   --   -----   gd81-09-12d2t06.wav
    19:24.30      205400204    ---   --   -----   gd81-09-12d2t07.wav
     9:35.67      101587628    ---   --   -----   gd81-09-12d3t01.wav
    10:13.05      108145004    ---   --   -----   gd81-09-12d3t02.wav
     9:28.48      100308140    ---   --   -----   gd81-09-12d3t03.wav
     3:58.27       42046748    ---   --   -----   gd81-09-12d3t04.wav
     4:57.22       52442588    ---   --   -----   gd81-09-12d3t05.wav
     9:27.22      100070588    ---   --   -----   gd81-09-12d3t06.wav
     8:18.32       87922508    ---   --   -----   gd81-09-12d3t07.wav
   204:43.07     2166738632 B                     (totals for 22 files)
Show Checksums
flac-md5
43540c790fcaed6327af20ff70593f31 *gd81-09-12d1t01.flac
452b17f80f6dff9ac40e184451ba6918 *gd81-09-12d1t02.flac
e230a158bed3b032fbd91cb162f9d7dc *gd81-09-12d1t03.flac
edff99a725aac51ca561fbbe826057a8 *gd81-09-12d1t04.flac
d3428685cd75705229146f7999d1e570 *gd81-09-12d1t05.flac
10f79662f4ed359e68dabf68a35ecfbc *gd81-09-12d1t06.flac
ec9cb11e6ba532b239c198d1e08db0fb *gd81-09-12d1t07.flac
9d18cd3bbd521a31a8d1e12b03ef5872 *gd81-09-12d1t08.flac
2b3d96f8ff0548b8b3a67100045e0522 *gd81-09-12d2t01.flac
e13fb9cfe0c1a7abbf0aa54b67a22693 *gd81-09-12d2t02.flac
e2f89722c261cfc2b8f003e83ccb4c94 *gd81-09-12d2t03.flac
933ac70a776b09c7351a2d4358ca18e9 *gd81-09-12d2t04.flac
0b101603fe388056ef90ca059ae1e20c *gd81-09-12d2t05.flac
f0e555c749d858026774f49832570d09 *gd81-09-12d2t06.flac
363865b596ba56e7c9aff0940ba07387 *gd81-09-12d2t07.flac
e93d1575ec53e25aa2549aa460992d81 *gd81-09-12d3t01.flac
0845f08accde5fc14fa960563ada508f *gd81-09-12d3t02.flac
e3de82eb2c2f4e4253b08ea46db7047e *gd81-09-12d3t03.flac
6d08b119213e5849873255c8ab15f3c0 *gd81-09-12d3t04.flac
660864a22526008094f7b47d6e862039 *gd81-09-12d3t05.flac
fb9654f95666a5d4350fba869d699627 *gd81-09-12d3t06.flac
2fc5089967440dc412e43607b1f6f4b0 *gd81-09-12d3t07.flac
ffp
gd81-09-12d1t01.flac:b837352983d7824e79660d40cc342955
gd81-09-12d1t02.flac:3c0612e61fc7d042368d1f3e32da4ec4
gd81-09-12d1t03.flac:04ec5fef4c5abfddec130c9466353e68
gd81-09-12d1t04.flac:c452056584c43247fc2ffc416b98518b
gd81-09-12d1t05.flac:a323cb716dc259fd3994c9bc882f1ca3
gd81-09-12d1t06.flac:f15c7cb09cbb93a86c018e64d5a5c039
gd81-09-12d1t07.flac:7690a7e8e3116f7b6e6b8b8a4c22a0dc
gd81-09-12d1t08.flac:399e61c6ad83e678071db5fa7b982100
gd81-09-12d2t01.flac:be5ae2577da940f40f75a90ed1485b8c
gd81-09-12d2t02.flac:9f355eac6c53b7f5f25a2c5561af2f8e
gd81-09-12d2t03.flac:0a34a847f39a9630c5e233d260114ba6
gd81-09-12d2t04.flac:e30534c99df96bed4f571334f674f788
gd81-09-12d2t05.flac:e4f13aa5d95b4a2426b4590c5535f5a8
gd81-09-12d2t06.flac:8dc9ab66cd43db4148e7a9c0aba9ffb3
gd81-09-12d2t07.flac:d27f1869e911fe01b8290fcaf5260566
gd81-09-12d3t01.flac:a6006417d7cb7136f02699987d062539
gd81-09-12d3t02.flac:30f45ed522763485e625eeef1ef230ac
gd81-09-12d3t03.flac:1df958753d9c0f0617e1d4692f6f74e2
gd81-09-12d3t04.flac:96bd95a13a6d41093edab140af5887e3
gd81-09-12d3t05.flac:b623cafa49d57d8f1b4e01cf31faeb9c
gd81-09-12d3t06.flac:bc29661762b3bc0c79288544e95412c4
gd81-09-12d3t07.flac:0e813f372430e95f7849f416955632aa

Comments
Add Comment
Other Sources (comments)
Recording by Jim Wise.... (1) This is the same as shnid... (2) flac16; Recording by... (7) Recording by Jim Wise. FOB... (0) flac16; Source:... (0) flac16; Recording... (2) flac16;Recording... (0) flac24; Recorded,... (1) flac16;Recorded,... (0) flac24; Source Info:... (0) flac16/48kHz; Source... (0)
Date User Comment
11/09/2008 Wharfrat73 Added taper's name to the info file.