Browse Collections Artists Sources   Search Dates

Add Show    List Management    Help


Grateful Dead 08/21/83
Frost Amphitheatre, Palo Alto, CA
Comments Add Comment    Source Collectors    Add to Collection    Add to Want List    History
Source # 95672 Other Sources
Entered by dr.unclear
Checksums flac-md5 , ffp
Disc Counts 2 / 2
Media Size
Date Circulated
Date Added
11/07/2008
11/06/2008
Source Summary flac16; Recording Info:(FOB) Sony ECM-220T -> Cassette Master (Sony TC-D5M/Fuji Metal Tape/Dolby B); Transfer Info: Cassette Master (Nakamichi DR-1/Dolby B) -> Sound Devices 744T (24bit/96k) -> Samplitude Professional v10.1 -> FLAC/16; Recorded By Michael Kirschner; All Transfers and Mastering By Charlie Miller 
  Archive
Source Information - Download Text | Download Zip
Grateful Dead - August 21, 1983
Frost Amphitheatre - Palo Alto, CA
Stanford University

Recording Info:
(FOB) Sony ECM-220T -> Cassette Master (Sony TC-D5M/Fuji Metal Tape/Dolby B)

Transfer Info:
Cassette Master (Nakamichi DR-1/Dolby B) -> Sound Devices 744T (24bit/96k) ->
Samplitude Professional v10.1 -> FLAC/16
(2 Discs Audio / 2 Discs FLAC)

All Transfers and Mastering By Charlie Miller
[email protected]
November 5, 2008

Patch Info:
(FOB) Sennheiser 441 -> Cassette Master -> Dat -> CD (shnid=10920) supplies:
Space (0:09 - 0:17)

Notes:
-- Disc change is seamless
-- Thanks to Michael Kirschner for lending me his masters

Set 1:
d1t01 - Cassidy
d1t02 - Dire Wolf
d1t03 - Me And My Uncle ->
d1t04 - Big River
d1t05 - Althea
d1t06 - Little Red Rooster
d1t07 - Big Railroad Blues
d1t08 - Let It Grow

Set 2:
d1t09 - Samson And Delilah ->
d1t10 - China Cat Sunflower ->
d1t11 - I Know You Rider
d2t01 - Playing In The Band ->
d2t02 - Drums ->
d2t03 - Space ->
d2t04 - The Wheel ->
d2t05 - Throwing Stones ->
d2t06 - Not Fade Away

Encore:
d2t07 - It's All Over Now, Baby Blue
d2t08 - Johnny B. Goode


SHNTOOL OUTPUT:
    length     expanded size   cdr  WAVE problems filename
     5:29.30       58106204    ---   --   -----   gd83-08-21d1t01.wav
     3:11.37       33779468    ---   --   -----   gd83-08-21d1t02.wav
     2:48.27       29698748    ---   --   -----   gd83-08-21d1t03.wav
     6:48.46       72079436    ---   --   -----   gd83-08-21d1t04.wav
     8:08.01       86085596    ---   --   -----   gd83-08-21d1t05.wav
     8:36.65       91175324    ---   --   -----   gd83-08-21d1t06.wav
     6:00.32       63579308    ---   --   -----   gd83-08-21d1t07.wav
    12:38.27      133774748    ---   --   -----   gd83-08-21d1t08.wav
     7:44.44       81953132    ---   --   -----   gd83-08-21d1t09.wav
     7:35.30       80332604    ---   --   -----   gd83-08-21d1t10.wav
     6:20.59       67170812    ---   --   -----   gd83-08-21d1t11.wav
    12:39.73      134059340    ---   --   -----   gd83-08-21d2t01.wav
     7:29.16       79241276    ---   --   -----   gd83-08-21d2t02.wav
     6:27.64       68417372    ---   --   -----   gd83-08-21d2t03.wav
     5:33.54       58868252    ---   --   -----   gd83-08-21d2t04.wav
     9:31.14      100757372    ---   --   -----   gd83-08-21d2t05.wav
     9:30.19      100592732    ---   --   -----   gd83-08-21d2t06.wav
     6:37.24       70087292    ---   --   -----   gd83-08-21d2t07.wav
     4:09.49       44038892    ---   --   -----   gd83-08-21d2t08.wav
   137:21.36     1453797908 B                     (totals for 19 files)
Show Checksums
flac-md5
40c224e5372997181c0a2776ed0815d3 *gd83-08-21d1t01.flac
2738a5e0290ce2b7293ae01639f2cf24 *gd83-08-21d1t02.flac
92d8cd8aba4cbdc54ffe678640cf19ec *gd83-08-21d1t03.flac
3d6fb3d35b89e870dcd51363a8fa1509 *gd83-08-21d1t04.flac
a9edf1206f45da8a026d82efa21dbcba *gd83-08-21d1t05.flac
f329c4cd46f61a0b8cd96dac28b5437c *gd83-08-21d1t06.flac
9f3b79c6a2fbe27ccf132cc281ea0c37 *gd83-08-21d1t07.flac
1a4ba9dd0215a7473fd5ebf4fad60322 *gd83-08-21d1t08.flac
e922058d77fea1d318e7fd451ff1e712 *gd83-08-21d1t09.flac
584b39ed8bcd2f11b5f57add3ae04dd5 *gd83-08-21d1t10.flac
bc0df4c46a4d5ac6c59c454e6196a8f8 *gd83-08-21d1t11.flac
43a07ad6c1f53814205e5953934aa3c2 *gd83-08-21d2t01.flac
b00162e72dadcd6fcb3abe462e4c7fa0 *gd83-08-21d2t02.flac
1f6b7b8c5a2039acdd6c9054cb5806f4 *gd83-08-21d2t03.flac
ce3182cdf37117b7c438253e3578fb83 *gd83-08-21d2t04.flac
438638ba89bebb45b5b521d4f3118fee *gd83-08-21d2t05.flac
8a6c186c2965fedbb5c503ee9e50ef04 *gd83-08-21d2t06.flac
fe20ea7fd48596b4556e8a9f4fc5a238 *gd83-08-21d2t07.flac
7e9c5c9151bc3e56291b0b1bbc7d3b90 *gd83-08-21d2t08.flac
ffp
gd83-08-21d1t01.flac:62cbd345efaaba2be03d6070398a8396
gd83-08-21d1t02.flac:4b850502be19f73d4107326d32199457
gd83-08-21d1t03.flac:e82dcdfd0320e3284bd433c3eb8bebb3
gd83-08-21d1t04.flac:33a0cdf768c815b6bea9eee7920df690
gd83-08-21d1t05.flac:ab99fad06c4f74419e13e535064611fd
gd83-08-21d1t06.flac:ead9c5324e57fea42880bad3dfa73042
gd83-08-21d1t07.flac:30bac949046b03ab261ec45646617b48
gd83-08-21d1t08.flac:d4c9c0a7cad53ebf70a14bb65aa8aefa
gd83-08-21d1t09.flac:7eab88e7fdc1fcc7ac726791d594d03e
gd83-08-21d1t10.flac:d83f9edb8f6a1c76e9647f729790e578
gd83-08-21d1t11.flac:2513a493f09bdd0f9f525f05aa6a56a4
gd83-08-21d2t01.flac:773c437199d3f4aca2a8c8027121e2b5
gd83-08-21d2t02.flac:48018e46331043bc9f41ace8da3e671b
gd83-08-21d2t03.flac:d1f8512c41cd8701bc821e6edf9c170c
gd83-08-21d2t04.flac:83bccd0fef34cace48878b1f558a4d51
gd83-08-21d2t05.flac:e9902e8828b53113107947c4064ebbce
gd83-08-21d2t06.flac:b905f10fec60f964f0288e32ea45959f
gd83-08-21d2t07.flac:3de271f9a5deeac8f572feaff9cf7963
gd83-08-21d2t08.flac:7ae48a165741956d543993bd0cea3ec4

Comments
Add Comment
Other Sources (comments)
FOB Senn 441>Sony... (0) Recording Info: (Immediate... (0) flac24; Recording... (0) flac16; Source: 2... (0) flac16/44.1khz ... (0) flac24/48khz ... (0)
Date User Comment