Browse Collections Artists Sources   Search Dates

Add Show    List Management    Help


Grateful Dead 08/12/87
Red Rocks Amphitheatre, Morrison, CO
Comments Add Comment    Source Collectors    Add to Collection    Add to Want List    History
Source # 95684 Other Sources
Entered by dr.unclear
Checksums ffp , flac-md5
Disc Counts 2 / 2
Media Size
Date Circulated
Date Added
11/07/2008
11/07/2008
Source Summary flac16; Recording Info: SBD -> Cassette Master -> Apogee Ensemble -> Peak -> AIFF (24bit/48k) Transfer Info: AIFF -> Samplitude Professional v10.1 -> Adobe Audition v1.5 -> FLAC/16; All Transfers and Mastering By Charlie Miller 
  Archive
Source Information - Download Text | Download Zip
Grateful Dead - August 12, 1987
Red Rocks Amphitheatre - Morrison, CO

Recording Info:
SBD -> Cassette Master -> Apogee Ensemble -> Peak -> AIFF (24bit/48k)

Transfer Info:
AIFF -> Samplitude Professional v10.1 -> Adobe Audition v1.5 -> FLAC/16
(2 Discs Audio / 2 Discs FLAC)

All Transfers and Mastering By Charlie Miller
[email protected]
November 5, 2008

Patch Info:
SBD -> Cassette Master -> Cassette (shnid=81677) supplies:
Space (4:21 - 4:27)

Notes:
-- Thanks to Joe B. Jones for his help with the pitch correction

Set 1:
d1t01 - Tuning
d1t02 - Hell In A Bucket ->
d1t03 - Sugaree
d1t04 - Never Trust A Woman
d1t05 - Cumberland Blues ->
d1t06 - Mexicali Blues
d1t07 - Friend Of The Devil
d1t08 - My Brother Esau
d1t09 - Bird Song ->
d1t10 - The Music Never Stopped

Set 2:
d2t01 - China Cat Sunflower ->
d2t02 - I Know You Rider
d2t03 - Man Smart (Woman Smarter) ->
d2t04 - Terrapin Station ->
d2t05 - Drums ->
d2t06 - Space ->
d2t07 - The Other One ->
d2t08 - Dear Mr. Fantasy ->
d2t09 - Wharf Rat ->
d2t10 - Turn On Your Lovelight

Encore:
d2t11 - The Mighty Quinn (Quinn The Eskimo)


SHNTOOL OUTPUT:
    length     expanded size   cdr  WAVE problems filename
     1:09.35       12253964    ---   --   -----   gd87-08-12d1t01.wav
     6:06.30       64633004    ---   --   -----   gd87-08-12d1t02.wav
    11:42.25      123891644    ---   --   -----   gd87-08-12d1t03.wav
     5:25.37       57417068    ---   --   -----   gd87-08-12d1t04.wav
     4:31.56       47936156    ---   --   -----   gd87-08-12d1t05.wav
     5:27.10       57706364    ---   --   -----   gd87-08-12d1t06.wav
     9:46.62      103516268    ---   --   -----   gd87-08-12d1t07.wav
     4:44.49       50212892    ---   --   -----   gd87-08-12d1t08.wav
     9:18.08       98450060    ---   --   -----   gd87-08-12d1t09.wav
     7:41.10       81343964    ---   --   -----   gd87-08-12d1t10.wav
     6:34.58       69638060    ---   --   -----   gd87-08-12d2t01.wav
     5:31.61       58531916    ---   --   -----   gd87-08-12d2t02.wav
     7:09.69       75837932    ---   --   -----   gd87-08-12d2t03.wav
    11:41.63      123804620    ---   --   -----   gd87-08-12d2t04.wav
     7:14.20       76604684    ---   --   -----   gd87-08-12d2t05.wav
     4:47.52       50749148    ---   --   -----   gd87-08-12d2t06.wav
     6:21.13       67239020    ---   --   -----   gd87-08-12d2t07.wav
     3:56.17       41670428    ---   --   -----   gd87-08-12d2t08.wav
     8:16.08       87513260    ---   --   -----   gd87-08-12d2t09.wav
     6:21.59       67347212    ---   --   -----   gd87-08-12d2t10.wav
     5:12.14       55069772    ---   --   -----   gd87-08-12d2t11.wav
   139:01.06     1471367436 B                     (totals for 21 files)
Show Checksums
ffp
gd87-08-12d1t01.flac:a2194aa7fbbe9e2bf36d73360d8d6c85
gd87-08-12d1t02.flac:08db75292e1608b83df8c321002594a3
gd87-08-12d1t03.flac:17949281c8bd86faaf3c0aaaf74eb8ed
gd87-08-12d1t04.flac:7ac2d74ba4a629df0adda46566c42da0
gd87-08-12d1t05.flac:07547d5fc123f1c2ab8aa53eb51968cf
gd87-08-12d1t06.flac:f8a7a940ca414f140a7115dc3123823d
gd87-08-12d1t07.flac:f40c6d6c6d7b64d3c3f559a64df7edc6
gd87-08-12d1t08.flac:4b8914c2b9f427232289e729a60b5cf5
gd87-08-12d1t09.flac:5119b7ec17d9cba7f76bf5fd0f4495ee
gd87-08-12d1t10.flac:440f31decb15d554f30bc4c31f4da226
gd87-08-12d2t01.flac:852f773d2951caa656e52f10341ea761
gd87-08-12d2t02.flac:7b759660b07aaa1eb40ffc43b1a30133
gd87-08-12d2t03.flac:36a95030abce38edce71d4e626d434f8
gd87-08-12d2t04.flac:50db0a9604b9b4c480669016d95bd18a
gd87-08-12d2t05.flac:3c3291192d899072aa9af179e13755e6
gd87-08-12d2t06.flac:fca03e1c559b3aba5d2d43b94fe8860e
gd87-08-12d2t07.flac:04c72a82a0af463970c87f437ba82016
gd87-08-12d2t08.flac:79f3d0c1845993ca894de8326707fa8f
gd87-08-12d2t09.flac:7b00e0ad5a3fde4bad3dc66a5b159a2d
gd87-08-12d2t10.flac:26fc9f9493f1b0c782eeb75c9839496b
gd87-08-12d2t11.flac:28073c458c10282b8205149484f4ed54
flac-md5
1e8d18995457fe157631fc5602f65a80 *gd87-08-12d1t01.flac
e19da94febed1676d9ebf610f4f40165 *gd87-08-12d1t02.flac
a5d0b2a36ed6fb14ba7966ba82eb894b *gd87-08-12d1t03.flac
2463cfd5da0852f803e0ccdcab12bd26 *gd87-08-12d1t04.flac
ec16a1e46c27c84f51bdf0e630394958 *gd87-08-12d1t05.flac
d290d06286f1c5d90fc6e1bab885573d *gd87-08-12d1t06.flac
ba4526a47453c112ac4eb6bec5f878bb *gd87-08-12d1t07.flac
7400294af19eb34d0971e33b43049dc2 *gd87-08-12d1t08.flac
aa8337df39d9449c5e6b22f55d8736c4 *gd87-08-12d1t09.flac
7950ec369ffdec53e02f374aa280d0b3 *gd87-08-12d1t10.flac
b9644200148b58ec5e11428be592632b *gd87-08-12d2t01.flac
b635325f520626ccaefb1aa950a8e16b *gd87-08-12d2t02.flac
5d167406998f876d4c2ea4edbea8c371 *gd87-08-12d2t03.flac
69c9ae91c4f6ea363d2fe1d60f054b59 *gd87-08-12d2t04.flac
a723002f47f0d54eab27e25f63af8db1 *gd87-08-12d2t05.flac
668cfcc2616c63ec4a1af0be80661fdd *gd87-08-12d2t06.flac
5a79c89d953a22763d16efa7a4c330e1 *gd87-08-12d2t07.flac
8595d8ffd4e9fb26f177507dbce45205 *gd87-08-12d2t08.flac
7a8acf2a94ffcee6b65284bc479bdea5 *gd87-08-12d2t09.flac
1820872495d41361520deaaadda521a0 *gd87-08-12d2t10.flac
392e411774f66ec3d11f8cc7fffd9fbc *gd87-08-12d2t11.flac

Comments
Add Comment
Other Sources (comments)
Nak CM 100>MC>DAT>CD; via... (2) AUD (Nak... (2) flac16; Schoeps CMC... (0) flac16; Recording... (0) AUD Source: Nakamichi... (0) flac16; Source:... (0) flac16; Source Info:... (0)
Date User Comment