Browse Collections Artists Sources   Search Dates

Add Show    List Management    Help


Grateful Dead 08/21/83
Frost Amphitheatre, Palo Alto, CA
Comments Add Comment    Source Collectors    Add to Collection    Add to Want List    History
Source # 95687 Other Sources
Entered by dr.unclear
Checksums ffp , flac-md5
Disc Counts 0 / 0
Media Size
Date Circulated
Date Added
11/08/2008
11/08/2008
Source Summary flac24; Recording Info:(FOB) Sony ECM-220T -> Cassette Master (Sony TC-D5M/Fuji Metal Tape/Dolby B); Transfer Info: Cassette Master (Nakamichi DR-1/Dolby B) -> Sound Devices 744T (24bit/96k) -> Samplitude Professional v10.1 -> FLAC/24; Recorded By Michael Kirschner; All Transfers and Mastering By Charlie Miller 
  Archive
Source Information - Download Text | Download Zip
Grateful Dead - August 21, 1983
Frost Amphitheatre - Palo Alto, CA
Stanford University

Recording Info:
(FOB) Sony ECM-220T -> Cassette Master (Sony TC-D5M/Fuji Metal Tape/Dolby B)

Transfer Info:
Cassette Master (Nakamichi DR-1/Dolby B) -> Sound Devices 744T (24bit/96k) ->
Samplitude Professional v10.1 -> FLAC/24
(1 DVD FLAC)

All Transfers and Mastering By Charlie Miller
[email protected]
November 5, 2008

Patch Info:
(FOB) Sennheiser 441 -> Cassette Master -> Dat -> CD (shnid=10920) supplies:
Space (0:09 - 0:17)

Notes:
-- Thanks to Michael Kirschner for lending me his masters

Set 1:
s1t01 - Cassidy
s1t02 - Dire Wolf
s1t03 - Me And My Uncle ->
s1t04 - Big River
s1t05 - Althea
s1t06 - Little Red Rooster
s1t07 - Big Railroad Blues
s1t08 - Let It Grow

Set 2:
s2t01 - Samson And Delilah ->
s2t02 - China Cat Sunflower ->
s2t03 - I Know You Rider
s2t04 - Playing In The Band ->
s2t05 - Drums ->
s2t06 - Space ->
s2t07 - The Wheel ->
s2t08 - Throwing Stones ->
s2t09 - Not Fade Away

Encore:
s2t10 - It's All Over Now, Baby Blue
s2t11 - Johnny B. Goode


SHNTOOL OUTPUT:
    length     expanded size   cdr  WAVE problems filename
     5:29.413     189742124    cxx   --   -----   gd83-08-21s1t01.wav
     3:11.493     110300204    cxx   --   -----   gd83-08-21s1t02.wav
     2:48.360      96975404    cxx   --   -----   gd83-08-21s1t03.wav
     6:48.613     235361324    cxx   --   -----   gd83-08-21s1t04.wav
     8:08.013     281095724    cxx   --   -----   gd83-08-21s1t05.wav
     8:36.867     297715244    cxx   --   -----   gd83-08-21s1t06.wav
     6:00.427     207605804    cxx   --   -----   gd83-08-21s1t07.wav
    12:38.358     436814276    cxx   --   -----   gd83-08-21s1t08.wav
     7:44.587     267601964    cxx   --   -----   gd83-08-21s2t01.wav
     7:35.400     262310444    cxx   --   -----   gd83-08-21s2t02.wav
     6:20.787     219333164    cxx   --   -----   gd83-08-21s2t03.wav
    12:39.973     437744684    cxx   --   -----   gd83-08-21s2t04.wav
     7:29.213     258746924    cxx   --   -----   gd83-08-21s2t05.wav
     6:27.853     223403564    cxx   --   -----   gd83-08-21s2t06.wav
     5:33.720     192222764    cxx   --   -----   gd83-08-21s2t07.wav
     9:31.187     329003564    cxx   --   -----   gd83-08-21s2t08.wav
     9:30.253     328465964    cxx   --   -----   gd83-08-21s2t09.wav
     6:37.320     228856364    cxx   --   -----   gd83-08-21s2t10.wav
     4:09.632     143788292    cxx   --   -----   gd83-08-21s2t11.wav
   137:21.470    4747087796 B                     (totals for 19 files)
Show Checksums
ffp
gd83-08-21s1t01.flac:d5870ca9391632810ac1eafd38161956
gd83-08-21s1t02.flac:7a0627105e1a0c7f16e7f1c972b4aaf6
gd83-08-21s1t03.flac:7c2ccdab513ca752d19928e846c61df9
gd83-08-21s1t04.flac:9f9fc37af44e7c48381bf50f2a17eff6
gd83-08-21s1t05.flac:dd6eef487ed18d5328e114ff71f312ed
gd83-08-21s1t06.flac:e645a24a4c5e0688755da4aa7d7ae5a7
gd83-08-21s1t07.flac:9baafb615f34bdf45fbb1f4e2d6ec971
gd83-08-21s1t08.flac:d76c8a1ddfb295569c2abe247097e248
gd83-08-21s2t01.flac:3db00e51e786b3476d1404eca15526ae
gd83-08-21s2t02.flac:a817d5a6f9fe17c1fc169f665d155e7e
gd83-08-21s2t03.flac:3158d4fbed10f16334a35adc0ceccc16
gd83-08-21s2t04.flac:9947903fea537a51d763a4bc2591534e
gd83-08-21s2t05.flac:35ebf9280763d6f20c2c427721de4d6f
gd83-08-21s2t06.flac:8759ca17ebdf9010c839b8559dff2fdc
gd83-08-21s2t07.flac:7c9280b3d4390da6e45882dfbc348949
gd83-08-21s2t08.flac:f4e0225d5bcec7a29ac0b9ac381bfac1
gd83-08-21s2t09.flac:9571a38bf5871e5527b63aa0f3474b0e
gd83-08-21s2t10.flac:5c126d11b1de3da2b0f657e57b79c115
gd83-08-21s2t11.flac:83f5a2211b3d57da10bda1c9d7f22782
flac-md5
5f4eb5233d18113b5c2a8bc91d3b7509 *gd83-08-21s1t01.flac
87d7fd3dc8caa307c939adbdb78c4de9 *gd83-08-21s1t02.flac
9d15634563e637b9181442a6ae07e40e *gd83-08-21s1t03.flac
7de1d8e431fad0a01cf8d42538789583 *gd83-08-21s1t04.flac
2d74c21e7dccb4db032c8f5557d8e6c5 *gd83-08-21s1t05.flac
9adf1dce239fe838ca2059a213e82722 *gd83-08-21s1t06.flac
a69bca0f3fb61330fb4faa5795f8d2dd *gd83-08-21s1t07.flac
3972de9fffba88326ee3aa7068ad83c1 *gd83-08-21s1t08.flac
0064c8410810bbcfc39142f407fafadb *gd83-08-21s2t01.flac
e0c8cf03f7b4dac602421f38e4316e32 *gd83-08-21s2t02.flac
a13864ef5c601e08fffd27e771711f12 *gd83-08-21s2t03.flac
d87f223c71ed4f9f42a008a720b135bb *gd83-08-21s2t04.flac
54e1908a5c8dd538d93bd1d11de91c8c *gd83-08-21s2t05.flac
40ffa662357ccdbc7abb7ca76a335de2 *gd83-08-21s2t06.flac
2e8f194849a6b8a8ca3cea32c482dd5f *gd83-08-21s2t07.flac
88596bb28051cc9a7ba28df863c63473 *gd83-08-21s2t08.flac
d3e3668c667a1e8df63ead8cdd87330b *gd83-08-21s2t09.flac
fd438d53719baeccefb4481c9c3c90ca *gd83-08-21s2t10.flac
570f68f955f68ec8851cc75aed521140 *gd83-08-21s2t11.flac

Comments
Add Comment
Other Sources (comments)
FOB Senn 441>Sony... (0) Recording Info: (Immediate... (0) flac16; Recording... (0) flac16; Source: 2... (0) flac16/44.1khz ... (0) flac24/48khz ... (0)
Date User Comment