Browse Collections Artists Sources   Search Dates

Add Show    List Management    Help


Grateful Dead 03/23/87
Hampton Coliseum, Hampton, VA
Comments Add Comment    Source Collectors    Add to Collection    Add to Want List    History
Source # 95716 Other Sources
Entered by dr.unclear
Checksums flac-md5 , ffp
Disc Counts 2 / 2
Media Size
Date Circulated
Date Added
11/09/2008
11/09/2008
Source Summary flac16; Recording Info: SBD -> Cassette Master -> Cassette; Transfer Info: Cassette (Sony TC-WE475) -> Sony R500 (Pass Through w/ SBM On) -> SEK'D Prodif Plus -> Samplitude Professional v10.1 -> FLAC; All Transfers and Mastering By Charlie Miller 
  Archive
Source Information - Download Text | Download Zip
Grateful Dead - March 23, 1987
Hampton Coliseum - Hampton, VA

Recording Info:
SBD -> Cassette Master -> Cassette

Transfer Info:
Cassette (Sony TC-WE475) -> Sony R500 (Pass Through w/ SBM On) ->
SEK'D Prodif Plus -> Samplitude Professional v10.1 -> FLAC
(2 Discs Audio / 2 Discs FLAC)

All Transfers and Mastering By Charlie Miller
[email protected]
November 6, 2008

Notes:
-- Disc change is seamless
-- Thanks to Steve Marcus for the cassettes
-- This is a pretty hissy matrix sbd with lots of audience

Set 1:
d1t01 - Touch Of Grey ->
d1t02 - Little Red Rooster
d1t03 - Althea
d1t04 - Me And My Uncle ->
d1t05 - Big River
d1t06 - Iko Iko
d1t07 - Tons Of Steel
d1t08 - Feel Like A Stranger
d1t09 - Don't Ease Me In

Set 2:
d1t10 - Tuning
d1t11 - Box Of Rain ->
d1t12 - Man Smart (Woman Smarter)
d2t01 - Ship Of Fools
d2t02 - Truckin' ->
d2t03 - Drums ->
d2t04 - Space ->
d2t05 - The Other One ->
d2t06 - Stella Blue ->
d2t07 - Throwing Stones ->
d2t08 - Turn On Your Lovelight

Encore:
d2t09 - U.S. Blues


SHNTOOL OUTPUT:
    length     expanded size   cdr  WAVE problems filename
     7:03.69       74779532    ---   --   -----   gd87-03-23d1t01.wav
     7:44.12       81877868    ---   --   -----   gd87-03-23d1t02.wav
     9:25.62       99811868    ---   --   -----   gd87-03-23d1t03.wav
     3:05.42       32732828    ---   --   -----   gd87-03-23d1t04.wav
     6:43.03       71096300    ---   --   -----   gd87-03-23d1t05.wav
     6:40.60       70701164    ---   --   -----   gd87-03-23d1t06.wav
     7:01.36       74349116    ---   --   -----   gd87-03-23d1t07.wav
     6:31.40       69066524    ---   --   -----   gd87-03-23d1t08.wav
     3:30.49       37159292    ---   --   -----   gd87-03-23d1t09.wav
     1:45.31       18594956    ---   --   -----   gd87-03-23d1t10.wav
     5:00.62       53065868    ---   --   -----   gd87-03-23d1t11.wav
     7:36.60       80579564    ---   --   -----   gd87-03-23d1t12.wav
     9:23.07       99329708    ---   --   -----   gd87-03-23d2t01.wav
    10:22.04      109730252    ---   --   -----   gd87-03-23d2t02.wav
     9:32.36      100985516    ---   --   -----   gd87-03-23d2t03.wav
     5:15.65       55718924    ---   --   -----   gd87-03-23d2t04.wav
     9:12.66       97528076    ---   --   -----   gd87-03-23d2t05.wav
     8:48.32       93214508    ---   --   -----   gd87-03-23d2t06.wav
     8:06.29       85798652    ---   --   -----   gd87-03-23d2t07.wav
     6:50.02       72328748    ---   --   -----   gd87-03-23d2t08.wav
     5:34.02       58922348    ---   --   -----   gd87-03-23d2t09.wav
   145:15.19     1537371612 B                     (totals for 21 files)
Show Checksums
flac-md5
2ce6f626c9af4354db244bdb36eb7eb0 *gd87-03-23d1t01.flac
6ba8d7d5eead3ac745bf9a90d37b6df7 *gd87-03-23d1t02.flac
5554070ccfd30624318b292a5326835a *gd87-03-23d1t03.flac
9463cd2ee99175eb12ca2c403f4f0b42 *gd87-03-23d1t04.flac
1945ec3deaef753a509ac8642b97d49f *gd87-03-23d1t05.flac
c29db1aadaeab1c19c61709781c7134e *gd87-03-23d1t06.flac
52040c18d1b83483f72122a805f4a3c0 *gd87-03-23d1t07.flac
bd393e7aaf32fa4a1b3f7f2e3d9e45b6 *gd87-03-23d1t08.flac
abd1e0c4741eb1f854892424592cec79 *gd87-03-23d1t09.flac
bd4d74c490327b15cc7bc3be57186045 *gd87-03-23d1t10.flac
e3b7a11da2f7f9042a42821864f2c3dc *gd87-03-23d1t11.flac
a120467f374666783225da081e2ebe6b *gd87-03-23d1t12.flac
cdcb7941d497c1508a0eca65bfad59a2 *gd87-03-23d2t01.flac
d04c83cecd8f555116ae94afffa04fc9 *gd87-03-23d2t02.flac
08404e0b3877b268a5ddf3f83d30aba8 *gd87-03-23d2t03.flac
380d0c70588d79aa906b3a53dc35499d *gd87-03-23d2t04.flac
088db19fd19971624f6ed666835e500e *gd87-03-23d2t05.flac
e2d7a5055cfb0cefa536cb8fc4281237 *gd87-03-23d2t06.flac
4c7ec528f013291b414fe894e6fa21fd *gd87-03-23d2t07.flac
2103ad33231b08536e47e1b4f9035dfa *gd87-03-23d2t08.flac
fc7b5d59011dacedca552f5a63e2545f *gd87-03-23d2t09.flac
ffp
gd87-03-23d1t01.flac:8ab71d197aea4aa7cfb81d90908dfa3b
gd87-03-23d1t02.flac:a45090e49869fb07627fd048ef7b9196
gd87-03-23d1t03.flac:30972708ad53c667b20f2649dc6e05c3
gd87-03-23d1t04.flac:ff2b91e8e5491fc2e6f840ac196604dc
gd87-03-23d1t05.flac:8b2acb74939079e59d212ad2368865dc
gd87-03-23d1t06.flac:b2c23b263b2d5ca852d12cb220a57958
gd87-03-23d1t07.flac:07920952e96ec4a6c9bb36a11ffd7a02
gd87-03-23d1t08.flac:6543c38ef51b1681c1f19d293fe17da3
gd87-03-23d1t09.flac:1b993fee32f09bd58c7a29242e1786d3
gd87-03-23d1t10.flac:d5c8183b4a8b34d3ffbeab310062d307
gd87-03-23d1t11.flac:ab98328c9f7f4ff7bc028566da65bb88
gd87-03-23d1t12.flac:0bfe2c8c178ce8a3b87e0c821fd4ee0c
gd87-03-23d2t01.flac:2266c5b5cf50c1425cdefa7a502ae576
gd87-03-23d2t02.flac:928e34446eb38eeddda523015c3074b2
gd87-03-23d2t03.flac:a3213fcb70eab059ea82f18dd5d5abb9
gd87-03-23d2t04.flac:eb520c597bc42ff6a0c606a9cfb8bdcb
gd87-03-23d2t05.flac:aa720805b20219b8f8011a005e105c97
gd87-03-23d2t06.flac:969691b96839ca301d157ae522d83fd0
gd87-03-23d2t07.flac:2dff2cdfa0edabbac24baee35b3c0ef3
gd87-03-23d2t08.flac:ab2ae75e939fdf4660cc4ad0199612f8
gd87-03-23d2t09.flac:dd34bf464c9bdde0a2aaed4833778bb5

Comments
Add Comment
Other Sources (comments)
FOB Schoeps CMC44 > Oade... (1) flac16; Source:... (0) flac16; taper : Joe... (0) flac16; Nakamichi... (0) flac16; 2 AKG 451s... (0) flac16; Master... (0) flac24; Master... (0) flac24; Updated... (0) flac24; Recording... (0) flac16; Recording... (2) flac24; Patched &... (0) flac16; Patched... (0) flac24; Matrix 2... (0) flac16; Matrix 2... (0) DTS-Audio-CD 5.1... (0) flac16/48kHz; 5.1... (0)
Date User Comment