Browse Collections Artists Sources   Search Dates

Add Show    List Management    Help


Grateful Dead 03/27/87
Hartford Civic Center, Hartford, CT
Comments Add Comment    Source Collectors    Add to Collection    Add to Want List    History
Source # 95717 Other Sources
Entered by dr.unclear
Checksums flac-md5 , ffp
Disc Counts 2 / 2
Media Size
Date Circulated
Date Added
11/09/2008
11/09/2008
Source Summary flac16; Recording Info: SBD -> Cassette Master -> Cassette; Transfer Info: Cassette (Sony TC-WE475) -> Sony R500 (Pass Through w/ SBM On) -> SEK'D Prodif Plus -> Samplitude Professional v10.1 -> FLAC; All Transfers and Mastering By Charlie Miller 
  Archive
Source Information - Download Text | Download Zip
Grateful Dead - March 27, 1987
Civic Center - Hartford, CT

Recording Info:
SBD -> Cassette Master -> Cassette

Transfer Info:
Cassette (Sony TC-WE475) -> Sony R500 (Pass Through w/ SBM On) ->
SEK'D Prodif Plus -> Samplitude Professional v10.1 -> FLAC
(2 Discs Audio / 2 Discs FLAC)

All Transfers and Mastering By Charlie Miller
[email protected]
November 7, 2008

Notes:
-- Disc change is seamless
-- Thanks to Steve Marcus for the cassettes
-- This is a pretty hissy matrix sbd with lots of audience

Set 1:
d1t01 - Tuning
d1t02 - Alabama Getaway ->
d1t03 - Greatest Story Ever Told
d1t04 - West L.A. Fadeaway
d1t05 - Little Red Rooster
d1t06 - Brown Eyed Women
d1t07 - Beat It On Down The Line
d1t08 - Tennessee Jed
d1t09 - The Music Never Stopped

Set 2:
d1t10 - Tuning
d1t11 - Touch Of Grey ->
d1t12 - Samson And Delilah ->
d1t13 - Cumberland Blues
d2t01 - Estimated Prophet ->
d2t02 - Eyes Of The World ->
d2t03 - Drums ->
d2t04 - Space ->
d2t05 - Uncle John's Band ->
d2t06 - Morning Dew

Encore:
d2t07 - Johnny B. Goode


SHNTOOL OUTPUT:
    length     expanded size   cdr  WAVE problems filename
     1:23.37       14728268    ---   --   -----   gd87-03-27d1t01.wav
     4:46.67       50608028    ---   --   -----   gd87-03-27d1t02.wav
     5:05.55       53931404    ---   --   -----   gd87-03-27d1t03.wav
     8:22.71       88719836    ---   --   -----   gd87-03-27d1t04.wav
     9:18.49       98546492    ---   --   -----   gd87-03-27d1t05.wav
     5:23.40       57071324    ---   --   -----   gd87-03-27d1t06.wav
     3:26.25       36397244    ---   --   -----   gd87-03-27d1t07.wav
     9:16.03       98085500    ---   --   -----   gd87-03-27d1t08.wav
     8:16.06       87508556    ---   --   -----   gd87-03-27d1t09.wav
     0:34.74        6171692    ---   --   -----   gd87-03-27d1t10.wav
     6:09.14       65124572    ---   --   -----   gd87-03-27d1t11.wav
     8:10.55       86565404    ---   --   -----   gd87-03-27d1t12.wav
     5:36.13       59301020    ---   --   -----   gd87-03-27d1t13.wav
    10:23.08      109916060    ---   --   -----   gd87-03-27d2t01.wav
     8:32.15       90352124    ---   --   -----   gd87-03-27d2t02.wav
     8:52.63       93993020    ---   --   -----   gd87-03-27d2t03.wav
     7:12.14       76237772    ---   --   -----   gd87-03-27d2t04.wav
     7:23.38       78234620    ---   --   -----   gd87-03-27d2t05.wav
    12:43.70      134757884    ---   --   -----   gd87-03-27d2t06.wav
     4:46.36       50535116    ---   --   -----   gd87-03-27d2t07.wav
   135:45.03     1436785936 B                     (totals for 20 files)
Show Checksums
flac-md5
80f8ca3030dfda58c3f4f69e89eac8d4 *gd87-03-27d1t01.flac
ed2d66dcb0aeba32e17af0d69d87afee *gd87-03-27d1t02.flac
5ae66b7404a7ec753bae977d19a742a8 *gd87-03-27d1t03.flac
397a94b2fd94517694984cb21bb50df2 *gd87-03-27d1t04.flac
a302a3338425e3abd8bdda09265facaa *gd87-03-27d1t05.flac
38404e78d2339130a4705365b1ab1928 *gd87-03-27d1t06.flac
7a3418e5bd5dc528e846e5d295194235 *gd87-03-27d1t07.flac
19793c49164c8d67a617e64e805cbe22 *gd87-03-27d1t08.flac
2a44af754016fb651d9e7ced4c16d06f *gd87-03-27d1t09.flac
374badcbb4fccc8ebc4a88091365e3aa *gd87-03-27d1t10.flac
3c8d851ccc6c09b705f4deeee2e531b6 *gd87-03-27d1t11.flac
ed998fa52cf7f349cc3196c1cf6427f2 *gd87-03-27d1t12.flac
c8df3cb65f632ecba448a9379cc69030 *gd87-03-27d1t13.flac
8629221cbd483ed568c372f945570f81 *gd87-03-27d2t01.flac
45be974ccf427c8c95eac01ef1d83788 *gd87-03-27d2t02.flac
2076e6b935a910bf6617a9c83bc2dff2 *gd87-03-27d2t03.flac
8203e0fc75f39d997c0e4fd2c08a3991 *gd87-03-27d2t04.flac
db628b5d9066fab8227703d65131e104 *gd87-03-27d2t05.flac
29245717b64057cf1b8962552bad8b05 *gd87-03-27d2t06.flac
d30c52ef0ec1c60b47e3306107dc07fc *gd87-03-27d2t07.flac
ffp
gd87-03-27d1t01.flac:def50659c1bded25597cb859498719d1
gd87-03-27d1t02.flac:5fc7cf0119a13b28a105c02ad564b416
gd87-03-27d1t03.flac:fe42e2781e7540e33bfbd2fe9d81f5d3
gd87-03-27d1t04.flac:f62d303eb86fac4bc703a2fd0d8597f0
gd87-03-27d1t05.flac:7e476894cfcb0240042baddb412995f4
gd87-03-27d1t06.flac:646c177915cd96a993df28ea4a7aae30
gd87-03-27d1t07.flac:a94df33e49575ac9229531baf586e431
gd87-03-27d1t08.flac:03becd4d1f3325cf6fd9690f17e29c34
gd87-03-27d1t09.flac:b61e6db1e27a164cb61e811f35138c2e
gd87-03-27d1t10.flac:2e64bda73d3fa75385057998654677c2
gd87-03-27d1t11.flac:8de7f8e0a45d51cb098a73ec33d4de55
gd87-03-27d1t12.flac:35eaa0831ad403eab679552904857b00
gd87-03-27d1t13.flac:b10dfe8d5239e793d522b6556b9b34cb
gd87-03-27d2t01.flac:d14edfd01250ff454b6cabae21c2802f
gd87-03-27d2t02.flac:4b187d613ac1cb9825aae5a032b6cab5
gd87-03-27d2t03.flac:49bc9b92e6e5d1fce42d5479885fe000
gd87-03-27d2t04.flac:8d689ee39f3291aa863405454a745fb7
gd87-03-27d2t05.flac:67fdfe8df0e009672e581f8c94b478d1
gd87-03-27d2t06.flac:917c3687502dc7a7b94dde85fa49e35c
gd87-03-27d2t07.flac:56abb74a48596df4d621cf9aa8c9b1e1

Comments
Add Comment
Other Sources (comments)
Audience Master Cassette... (1) flac16; taper : Joe... (0) flac16; Source: (2x)... (0) flac16; Recording... (0) flac24; Source: SBD... (0) flac24; source: (2)... (0) flac24; Recording... (0) flac16; Recording... (0) flac16; Set 2, OTS... (0)
Date User Comment