Browse Collections Artists Sources   Search Dates

Add Show    List Management    Help


Grateful Dead 04/03/87
The Centrum, Worcester, MA
Comments Add Comment    Source Collectors    Add to Collection    Add to Want List    History
Source # 95720 Other Sources
Entered by dr.unclear
Checksums ffp , flac-md5
Disc Counts 2 / 2
Media Size
Date Circulated
Date Added
11/09/2008
11/09/2008
Source Summary flac16; Recording Info: SBD -> Cassette Master -> Cassette Transfer Info: Cassette (Sony TC-WE475) -> Sony R500 (Pass Through w/ SBM On) -> SEK'D Prodif Plus -> Samplitude Professional v10.1 -> FLAC; All Transfers and Mastering By Charlie Miller 
  Archive
Source Information - Download Text | Download Zip
Grateful Dead - April 3, 1987
The Centrum - Worcester, MA

Recording Info:
SBD -> Cassette Master -> Cassette

Transfer Info:
Cassette (Sony TC-WE475) -> Sony R500 (Pass Through w/ SBM On) ->
SEK'D Prodif Plus -> Samplitude Professional v10.1 -> FLAC
(2 Discs Audio / 2 Discs FLAC)

All Transfers and Mastering By Charlie Miller
[email protected]
November 7, 2008

Notes:
-- Thanks to Steve Marcus for the cassettes
-- This is a pretty hissy matrix sbd with lots of audience

Set 1:
d1t01 - Hell In A Bucket ->
d1t02 - Sugaree
d1t03 - C C Rider
d1t04 - It Must Have Been The Roses
d1t05 - It's All Over Now
d1t06 - Big Railroad Blues
d1t07 - Let It Grow ->
d1t08 - Don't Ease Me In

Set 2:
d2t01 - China Cat Sunflower ->
d2t02 - I Know You Rider
d2t03 - Man Smart (Woman Smarter) ->
d2t04 - Crazy Fingers ->
d2t05 - Samson And Delilah ->
d2t06 - Drums ->
d2t07 - Space ->
d2t08 - The Other One ->
d2t09 - Wharf Rat ->
d2t10 - Throwing Stones ->
d2t11 - Not Fade Away

Encore:
d2t12 - U.S. Blues


SHNTOOL OUTPUT:
    length     expanded size   cdr  WAVE problems filename
     6:34.37       69588668    ---   --   -----   gd87-04-03d1t01.wav
     9:45.52      103316348    ---   --   -----   gd87-04-03d1t02.wav
     9:02.31       95681756    ---   --   -----   gd87-04-03d1t03.wav
     8:27.55       89564204    ---   --   -----   gd87-04-03d1t04.wav
     8:02.46       85133036    ---   --   -----   gd87-04-03d1t05.wav
     5:39.04       59809052    ---   --   -----   gd87-04-03d1t06.wav
    12:16.38      129919820    ---   --   -----   gd87-04-03d1t07.wav
     3:49.21       40445036    ---   --   -----   gd87-04-03d1t08.wav
     6:01.66       63835676    ---   --   -----   gd87-04-03d2t01.wav
     5:33.65       58894124    ---   --   -----   gd87-04-03d2t02.wav
     6:39.17       70423628    ---   --   -----   gd87-04-03d2t03.wav
     9:01.00       95432444    ---   --   -----   gd87-04-03d2t04.wav
     6:46.28       71684300    ---   --   -----   gd87-04-03d2t05.wav
     4:44.67       50255228    ---   --   -----   gd87-04-03d2t06.wav
     5:53.15       62304524    ---   --   -----   gd87-04-03d2t07.wav
     4:57.15       52426124    ---   --   -----   gd87-04-03d2t08.wav
     8:24.42       89004428    ---   --   -----   gd87-04-03d2t09.wav
     8:22.63       88701020    ---   --   -----   gd87-04-03d2t10.wav
     6:46.74       71792492    ---   --   -----   gd87-04-03d2t11.wav
     5:51.64       62066972    ---   --   -----   gd87-04-03d2t12.wav
   142:41.50     1510278880 B                     (totals for 20 files)
Show Checksums
ffp
gd87-04-03d1t01.flac:9ad1e789d3b2d26a5a6196b3768547ff
gd87-04-03d1t02.flac:d1688a0d9608bf83dc2909f4cb138367
gd87-04-03d1t03.flac:859e32b6ccc5bd5154ce2619804f1d05
gd87-04-03d1t04.flac:fcaec72156255109e415ba16d616b667
gd87-04-03d1t05.flac:dba606a00186ec30ad44df50ad1539a6
gd87-04-03d1t06.flac:d2f618927a6982a6a82f59cfd787acfe
gd87-04-03d1t07.flac:789b138c95f715d95ba3c0790f65fc2e
gd87-04-03d1t08.flac:78e12ffcd1b7cb0d848a91cfcd940121
gd87-04-03d2t01.flac:3c5dfbfbfa2b5e199b0dd13e8daf33f5
gd87-04-03d2t02.flac:124c93398eb01b52c28678ec99c40edb
gd87-04-03d2t03.flac:364db9716fd25a70070e50f1da1aa15c
gd87-04-03d2t04.flac:e7df1b8ea96042014c51f355e70df6b7
gd87-04-03d2t05.flac:3192de0369f20e493e712770f99818c2
gd87-04-03d2t06.flac:8674f38ec60666e0ba6b0ec4f67ef362
gd87-04-03d2t07.flac:d40ace1bc9a8a7117299af21d395a5c5
gd87-04-03d2t08.flac:cfc943c79416442ed6c18200d41b0bb4
gd87-04-03d2t09.flac:c5aad9307c72cb97f3e9805ba3e80b4a
gd87-04-03d2t10.flac:48803aa3a54f41ce7e9469575f0bb5bb
gd87-04-03d2t11.flac:7d7457c79f19258ae42ab5fa62bbaa6a
gd87-04-03d2t12.flac:e36ce52a6e67f31ed08669c38e51aa4a
flac-md5
242f132d255b385220531f6ad5c72ab9 *gd87-04-03d1t01.flac
29a076b5b1d3d0d3e75529cd4bc9e166 *gd87-04-03d1t02.flac
841f7656730adc8d9d4372b985ec87ea *gd87-04-03d1t03.flac
edb11910887b08b3905173157312f6ab *gd87-04-03d1t04.flac
5ab679823c8fd47a9963210e472f0364 *gd87-04-03d1t05.flac
e9c7172cb7ed4d5a62d4f733982dcecf *gd87-04-03d1t06.flac
601ba3151f95343f2386419736e41186 *gd87-04-03d1t07.flac
874c2ae1166f8d00b704204481c544a5 *gd87-04-03d1t08.flac
8348a6bbb8fd0959553125820a3d7abc *gd87-04-03d2t01.flac
bedf993d8f6fb124640e029198ebf913 *gd87-04-03d2t02.flac
0e9a61953bfe8e043830ab47edb9d7ff *gd87-04-03d2t03.flac
587dba1bf84ba7f030b026cddfba1910 *gd87-04-03d2t04.flac
e01cbb2939aac087add58e731404efb9 *gd87-04-03d2t05.flac
f463f20f6997f6583d9c86bf66514019 *gd87-04-03d2t06.flac
470bbe098b732762b39e5ae94cfce1e9 *gd87-04-03d2t07.flac
f194498334e55b06b856dfaaf0993757 *gd87-04-03d2t08.flac
b48f79c954af18877f32aa67187a1584 *gd87-04-03d2t09.flac
7b19f598b80e9e89b5aebf18f738ea34 *gd87-04-03d2t10.flac
2985de14868146a4f2010b5a5e2dd6cf *gd87-04-03d2t11.flac
01569cdd9bb35592e58728a698ad04e2 *gd87-04-03d2t12.flac

Comments
Add Comment
Other Sources (comments)
2nd set only;... (0) Recording Info: Sennheiser... (0) flac16; taper : Joe... (0) flac16; Recording... (0) flac16; Master... (0) flac24; Master... (0) flac24; Set 2... (2) flac24; Recording... (0) flac16; Recording... (0) flac16; Recording... (0) flac24; Recording... (0) flac16; Set 2 Source... (0)
Date User Comment