Browse Collections Artists Sources   Search Dates

Add Show    List Management    Help


Grateful Dead 04/04/87
The Centrum, Worcester, MA
Comments Add Comment    Source Collectors    Add to Collection    Add to Want List    History
Source # 95721 Other Sources
Entered by dr.unclear
Checksums ffp , flac-md5
Disc Counts 2 / 2
Media Size
Date Circulated
Date Added
11/09/2008
11/09/2008
Source Summary flac16; Recording Info: SBD -> Cassette Master -> Cassette Transfer Info: Cassette (Sony TC-WE475) -> Sony R500 (Pass Through w/ SBM On) -> SEK'D Prodif Plus -> Samplitude Professional v8.01 -> FLAC; All Transfers and Mastering By Charlie Miller 
  Archive
Source Information - Download Text | Download Zip
Grateful Dead - April 4, 1987
The Centrum - Worcester, MA

Recording Info:
SBD -> Cassette Master -> Cassette

Transfer Info:
Cassette (Sony TC-WE475) -> Sony R500 (Pass Through w/ SBM On) ->
SEK'D Prodif Plus -> Samplitude Professional v8.01 -> FLAC
(2 Discs Audio / 2 Discs FLAC)

All Transfers and Mastering By Charlie Miller
[email protected]
November 7, 2008

Notes:
-- Thanks to Steve Marcus for the cassettes
-- This is a pretty hissy matrix sbd with lots of audience

Set 1:
d1t01 - Tuning
d1t02 - Touch Of Grey ->
d1t03 - Greatest Story Ever Told
d1t04 - Althea
d1t05 - El Paso
d1t06 - Tennessee Jed
d1t07 - Cassidy
d1t08 - Never Trust A Woman
d1t09 - Box Of Rain
d1t10 - The Promised Land

Set 2:
d2t01 - Iko Iko
d2t02 - Playing In The Band ->
d2t03 - Comes A Time ->
d2t04 - Willie And The Hand Jive ->
d2t05 - Drums ->
d2t06 - Space ->
d2t07 - Truckin' ->
d2t08 - Playing In The Band Reprise ->
d2t09 - Morning Dew

Encore:
d2t10 - One More Saturday Night


SHNTOOL OUTPUT:
    length     expanded size   cdr  WAVE problems filename
     2:35.64       27492572    ---   --   -----   gd87-04-04d1t01.wav
     6:06.66       64717676    ---   --   -----   gd87-04-04d1t02.wav
     4:27.13       47129420    ---   --   -----   gd87-04-04d1t03.wav
     7:51.11       83110316    ---   --   -----   gd87-04-04d1t04.wav
     7:09.46       75783836    ---   --   -----   gd87-04-04d1t05.wav
    10:07.58      107211260    ---   --   -----   gd87-04-04d1t06.wav
     6:30.17       68836028    ---   --   -----   gd87-04-04d1t07.wav
     7:56.45       84072284    ---   --   -----   gd87-04-04d1t08.wav
     4:55.04       52047452    ---   --   -----   gd87-04-04d1t09.wav
     4:48.17       50843228    ---   --   -----   gd87-04-04d1t10.wav
     6:44.73       71437340    ---   --   -----   gd87-04-04d2t01.wav
    10:23.58      110033660    ---   --   -----   gd87-04-04d2t02.wav
     8:08.64       86233772    ---   --   -----   gd87-04-04d2t03.wav
     6:19.47       66966188    ---   --   -----   gd87-04-04d2t04.wav
     7:58.18       84361580    ---   --   -----   gd87-04-04d2t05.wav
     6:44.45       71371484    ---   --   -----   gd87-04-04d2t06.wav
     7:43.74       81847292    ---   --   -----   gd87-04-04d2t07.wav
     3:19.26       35164796    ---   --   -----   gd87-04-04d2t08.wav
    10:43.03      113432300    ---   --   -----   gd87-04-04d2t09.wav
     5:05.20       53849084    ---   --   -----   gd87-04-04d2t10.wav
   135:40.19     1435941568 B                     (totals for 20 files)
Show Checksums
ffp
gd87-04-04d1t01.flac:34357c46e836d63988ac6536739f9f6f
gd87-04-04d1t02.flac:f725e8650136134bbb01092a96e53f6c
gd87-04-04d1t03.flac:2d3a078de8ddf6bab9f7dc9f542641fc
gd87-04-04d1t04.flac:7c96034ddbff6dab600ac92936b118f9
gd87-04-04d1t05.flac:445029bb517b3786bd3fb0c0ffbff088
gd87-04-04d1t06.flac:9c37409c176deea68f76c3c72dec9dfd
gd87-04-04d1t07.flac:b97635edd85d77f76fa2eafcbc0af63f
gd87-04-04d1t08.flac:a7fd37a13fb9a57a98c288a76b3f9366
gd87-04-04d1t09.flac:3be734bac0b682e1c624a1b47878df64
gd87-04-04d1t10.flac:00cdcc721f5c878f635f612447dd7696
gd87-04-04d2t01.flac:41e2e6bab782da66a625e84a92f59bd1
gd87-04-04d2t02.flac:f23cfe8ea3718d3b2ce9fd839e20b000
gd87-04-04d2t03.flac:ccae96951756b1b9935154a7c922067b
gd87-04-04d2t04.flac:94f744196614f00128e41651a4c9e5b5
gd87-04-04d2t05.flac:bbc0c388dbe8651e162f670fe961ddce
gd87-04-04d2t06.flac:3afdecaf9b9baef41463b11c773a36e0
gd87-04-04d2t07.flac:da24c2b16f574a98c66320f9f7add4f3
gd87-04-04d2t08.flac:aea1ab2c00a4ddb75fec0012cb17a16a
gd87-04-04d2t09.flac:13b596984f7dcc937457e3804c111ed5
gd87-04-04d2t10.flac:720d82c2f2328bba71335ac1777e0063
flac-md5
eb0034706dcf63d756ccc4a1be0a8ede *gd87-04-04d1t01.flac
eb26eef27f265022d51212ed62fb2a4c *gd87-04-04d1t02.flac
01c4b3871b956bbd1fd1685bd4d74b92 *gd87-04-04d1t03.flac
157bb77b26f2557b351f9b39d9474351 *gd87-04-04d1t04.flac
54fb964efe972794ea6478eb8a71762e *gd87-04-04d1t05.flac
24cb6a0b2c884a977284a48914ed37e4 *gd87-04-04d1t06.flac
ff74ea4d7fb062b18980356626df65bc *gd87-04-04d1t07.flac
6242c12d7af669aabfa84348e34d7dac *gd87-04-04d1t08.flac
ac0a202a4cba27365ad95879270d2b2f *gd87-04-04d1t09.flac
d49fecfad2bc9925a556ea3e51903e0f *gd87-04-04d1t10.flac
c3947db1229b86fccf4d9822f821ca2b *gd87-04-04d2t01.flac
5e4e1d82d8c5acfc5c25b846e9cb2a93 *gd87-04-04d2t02.flac
b5d2292174adfcff38d5e894c8791b75 *gd87-04-04d2t03.flac
7fbf2dc4ed13349c31c1eb165e74c777 *gd87-04-04d2t04.flac
823387e9e4e8e9b9547122699af6c3b1 *gd87-04-04d2t05.flac
5c74bf4e955248331e1fc4a43612b75e *gd87-04-04d2t06.flac
02f1da4ad97bfd89e17aa10bbbb7132e *gd87-04-04d2t07.flac
f0838bce0c1c8af7aa87616c1104ab5d *gd87-04-04d2t08.flac
0073980eaa1ccf78467ec4fa3a841ab3 *gd87-04-04d2t09.flac
4e8d7d3e8716d3410bfb88ac00a03040 *gd87-04-04d2t10.flac

Comments
Add Comment
Other Sources (comments)
FOB Schoeps > PCM > DAT >... (1) flac16; Source: AUD,... (0) flac16; taper : Joe... (0) flac16; Recording... (0) flac16; FOB>AKG... (0) flac16; Master... (0) flac24; Master... (0) flac24; source:... (0) flac24; Recording... (0) flac24; Recording... (0) flac16; Recording... (0) flac16; Recording... (0)
Date User Comment