Browse Collections Artists Sources   Search Dates

Add Show    List Management    Help


Grateful Dead 09/24/73
Civic Arena, Pittsburgh, PA
Comments Add Comment    Source Collectors    Add to Collection    Add to Want List    History
Source # 95729 Other Sources
Entered by dr.unclear
Checksums ffp , flac-md5
Disc Counts 2 / 3
Media Size
Date Circulated
Date Added
11/10/2008
11/10/2008
Source Summary flac16; MAR>R>CD CD's supplied by Matt Smith; Edited and Mastered by Jamie Waddell as a GEMS production; audio patches by Kevin Tobin 
  Archive
Source Information - Download Text | Download Zip
Grateful Dead
Pittsburgh Civic Arena,
Pittsburgh, PA
9/24/73

AUD1 Source: MAR>R>CD

Edited and Mastered by Jamie Waddell on the GEMS Edit Station

A GEMS production -+-+- www.shnflac.net -+-+-

Notes
- Big Thanks to Matt Smith for sharing his cd's of this candelario audience.
- Patches and post production work performed by Kevin Tobin as part of the matrix\dts project using this show. Trac'ed Cdwave Flac'ed level 8 TLH

Per Matt Smith:
This is not in the vault.  DL even looked at the box and told me.  There may be one more reel gen but unless Kidd owns the master(s) Jerry(Debbie) had it as well as other AUDS Kidd did.

Set 1:
d1t01 - Promised Land
d1t02 - Sugaree
d1t03 - Jack Straw
d1t04 - They Love Each Other
d1t05 - Mexicali Blues
d1t06 - Loose Lucy
d1t07 - Looks Like Rain
d1t08 - Row Jimmy
d1t09 - Big River
d2t01 - Equipment Problem\Tuning
d2t02 - China Cat Sunflower >
d2t03 - I Know You Rider
d2t04 - Around & Around

Set 2:
d2t05 - Ramble On Rose
d2t06 - El Paso
d2t07 - Mississippi Half Step
d2t08 - Greatest Story Ever Told
d2t09 - China Doll
d3t01 - Truckin ->
d3t02 - Nobody's Fault But Mine ->
d3t03 - Eyes Of The World ->*
d3t04 - Weather Report Suite Prelude ->
d3t05 - Weather Report Suite Part 1 ->
d3t06 - Let It Grow*
d3t07 - Sugar Magnolia*

*with Martin Fierro & Joe Ellis on horns

Patch Audio Source Information
SBD1 (shnid=95740)
SBD: MR>[email protected] 1/2 ips(JG)>[email protected] 7 1/2 ips.(WB)>CD

SBD2 (shnid=5839)
Source: Unknown generation soundboard > PCM > DAT > WAV > SHN

DAT > WAV > SHN:  Dan Stephens ([email protected])
Tascam DA-20mkII > SBLive! (48-44.1) > WAV > MKW Audio Compression Tool
compiled by Dan Stephens 10/06/2001

NOTE: Special thanks to Peter Braverman for diggin into his vault and finding this for me - there was a bit of a difference between this source and what was used from it on the Cottsman compilation.

AUD2\SBD3 (shnid=11620)
Source 1: AUD>MR>?>CD>EAC>SHN
Source 2: SBD>MR>?>PCM>D>CD>EAC>SHN
Source 3: SBD>MR>?>CD>EAC>SHN (Mexicali Blues only)

The audience recording is of decent quality for the era (though frequently oversaturated), and the SBD portions are only very slightly degraded.   Sound Forge was used for pitch corrections, patching, and to remove many crackles that were present on the SBD portions.   Some circulating copies of this show may have a BIODTL after Greatest Story, and a WRS from a degraded SBD.   Both of these portions are actually from the 10-21-73 SBD, though, and have been corrected for this shn set.

The audience recording supplies:
--Promised Land through TLEO
--China Cat through Half Step
--WRS-->Sugar Magnolia

Notes:
--many songs are missing the first few notes on the audience portions because of taper conservation; all such cuts are minor
--minor splice at beginning of Jack Straw, probably due to an accidental pause
--splice in China Cat @ 5:50
--dropout @ 6:12 in China Cat
--minor cut at the end of Half Step
--spice @ 6:15 in Sugar Magnolia

part of The Music Never Stopped Project 2002

Thanks to Michael Dixon, Alan Fink, & Dan Stephens
edits/encoding by JCotsman
---------------------------------------------------------
- FLAC conversion 10-NOV-2008  
---------------------------------------------------------
Audio Patches:

1) At the beginning of Promised Land, 58.634 seconds were missing from the AUD1 source and was filled in with audio from the AUD2 source. The first notes of Promised Land are missing.

2) 4 minutes and 51 seconds into Loose Lucy, 2 minutes and 31.970 seconds were missing from the AUD1 source and was filled in with audio from the SBD3 source.

3) 6 minutes and 24 seconds into China Cat Sunflower, 2 minutes and 30.814 seconds were missing from the AUD1 source and was filled in with audio from the AUD2 source. This includes first notes of I Know You Rider.

4) At the beginning of Ramble On Rose, 2.261 seconds were missing from the AUD1 source and was filled in with audio from the AUD2 source. The first notes of Ramble On Rose are missing.

5) Between Ramble On Rose and El Paso, 3.025 seconds were missing from the AUD1 source and was filled in with audio from the SBD1 source.

6) Between Mississippi Halfstep and Greatest Story, 1 minute and 46.217 seconds were missing from the AUD1 source and was filled in with audio from the SBD2 source. This includes the first 1 minute and 16 seconds of Greatest Story.

7) 4 minutes and 57 seconds into Eyes Of The World, 41.364 seconds were missing from the AUD1 source and was filled in with audio from the SBD2 source.

8) 6 minutes and 22 seconds into Sugar Magnolia, 2 minute and 17.251 seconds were missing from the AUD1 source and was filled in with audio from the AUD2 source. This is just after the beginning of Sunshine Daydream.
  
    length     expanded size    cdr  WAVE problems  fmt   ratio  filename
     3:29.23       36921740 B   ---   --   -----    wav  1.0000  gd1973-09-24d1t01.wav
     8:12.51       86908796 B   ---   --   -----    wav  1.0000  gd1973-09-24d1t02.wav
     5:11.28       54926300 B   ---   --   -----    wav  1.0000  gd1973-09-24d1t03.wav
     6:56.55       73511804 B   ---   --   -----    wav  1.0000  gd1973-09-24d1t04.wav
     4:05.27       43281548 B   ---   --   -----    wav  1.0000  gd1973-09-24d1t05.wav
     8:23.26       88790396 B   ---   --   -----    wav  1.0000  gd1973-09-24d1t06.wav
     8:46.55       92915804 B   ---   --   -----    wav  1.0000  gd1973-09-24d1t07.wav
    10:45.47      113888588 B   ---   --   -----    wav  1.0000  gd1973-09-24d1t08.wav
     4:44.47       50208188 B   ---   --   -----    wav  1.0000  gd1973-09-24d1t09.wav
     4:10.40       44194124 B   ---   --   -----    wav  1.0000  gd1973-09-24d2t01.wav
     8:32.29       90385052 B   ---   --   -----    wav  1.0000  gd1973-09-24d2t02.wav
     5:40.37       60063068 B   ---   --   -----    wav  1.0000  gd1973-09-24d2t03.wav
     4:52.40       51602924 B   ---   --   -----    wav  1.0000  gd1973-09-24d2t04.wav
     7:44.48       81962540 B   ---   --   -----    wav  1.0000  gd1973-09-24d2t05.wav
     5:10.60       54825164 B   ---   --   -----    wav  1.0000  gd1973-09-24d2t06.wav
     9:07.70       96655484 B   ---   --   -----    wav  1.0000  gd1973-09-24d2t07.wav
     6:44.27       71329148 B   ---   --   -----    wav  1.0000  gd1973-09-24d2t08.wav
     7:54.63       83761820 B   ---   --   -----    wav  1.0000  gd1973-09-24d2t09.wav
     6:17.68       66662780 B   ---   --   -----    wav  1.0000  gd1973-09-24d3t01.wav
     7:06.34       75226412 B   ---   --   -----    wav  1.0000  gd1973-09-24d3t02.wav
    13:22.37      141559868 B   ---   --   -----    wav  1.0000  gd1973-09-24d3t03.wav
     1:20.48       14224940 B   ---   --   -----    wav  1.0000  gd1973-09-24d3t04.wav
     4:49.02       50984348 B   ---   --   -----    wav  1.0000  gd1973-09-24d3t05.wav
    11:49.51      125187596 B   ---   --   -----    wav  1.0000  gd1973-09-24d3t06.wav
     9:39.06      102149756 B   ---   --   -----    wav  1.0000  gd1973-09-24d3t07.wav
   174:59.44     1852128188 B                            1.0000  (25 files)
Show Checksums
ffp
gd1973-09-24d1t01.flac:0484ac74df482cdb07b371d22e80020e
gd1973-09-24d1t02.flac:e95bcc9359b106ec3c5f44ae22db6dbc
gd1973-09-24d1t03.flac:e7881d0ab30ad48a3a0b72fe936bc713
gd1973-09-24d1t04.flac:a498d553e19ff0f273bfd16669ba8da4
gd1973-09-24d1t05.flac:73567cbecfcc5f6c239d695de51c8a62
gd1973-09-24d1t06.flac:716f5e58d7bf134c72bfc9f2c2395a54
gd1973-09-24d1t07.flac:019be4d6f6236b997e5b5069f060663b
gd1973-09-24d1t08.flac:d881a030d7262506a61d04be1069dd80
gd1973-09-24d1t09.flac:3ed619cba927002dde65d22c8caafafa
gd1973-09-24d2t01.flac:c2860f8de2059662b2211e6256e30ba5
gd1973-09-24d2t02.flac:489afa139da281ee2d68766a9501b945
gd1973-09-24d2t03.flac:96e5d883cdddd59ad14db7d06ac1b3eb
gd1973-09-24d2t04.flac:59e0dc07b9e7f25fa1b9108dfcfc571a
gd1973-09-24d2t05.flac:350c06af22e65c2ec03052a36b0f994f
gd1973-09-24d2t06.flac:51c0fc31908749fcc422b13e8a00fb6b
gd1973-09-24d2t07.flac:6ae5d998644a11172bba28b28773a54b
gd1973-09-24d2t08.flac:01b92cc8006e5ce920a23183450678b9
gd1973-09-24d2t09.flac:d104c480fed7c07be6a4b8f8e298b101
gd1973-09-24d3t01.flac:7235c670a2538bb3d9892189094bb480
gd1973-09-24d3t02.flac:5ab9d1fe8b897407c2dc3a2973233d4b
gd1973-09-24d3t03.flac:dfaf8e39acff395949ae505d17b5f2d9
gd1973-09-24d3t04.flac:39d02e1c0997d1a88eec3d0b26294d89
gd1973-09-24d3t05.flac:74181719a47fb2f3da49864ce8653ec2
gd1973-09-24d3t06.flac:619080eff7a436e3eff44db512d83f26
gd1973-09-24d3t07.flac:7b3b849f8f397bafd168d1d27ab457fe
flac-md5
d05858222922e9c17bbcd2aa9ca499d8 *gd1973-09-24d1t01.flac
33c5d7d7e25a068a381eab460eb76c14 *gd1973-09-24d1t02.flac
e0c68d06eb49cd092322342c6465519d *gd1973-09-24d1t03.flac
0ad0c1a59eaf6f09a2a41757b4693c5f *gd1973-09-24d1t04.flac
bb4fba7bdcb39f53d0a0ee9221f7d299 *gd1973-09-24d1t05.flac
3bf7a58dd044ade3bf6fc50747938996 *gd1973-09-24d1t06.flac
9f6b850ce382069694ea2ee2aadf1804 *gd1973-09-24d1t07.flac
07a63284d7c269ac8b9df7b81370b88c *gd1973-09-24d1t08.flac
67dcb8d0355f0d73634f6a8779344fe5 *gd1973-09-24d1t09.flac
9f4026cf57cd59eeef670955d96ba271 *gd1973-09-24d2t01.flac
febe8d2d12cf5e3160d65e9ec5d7ae30 *gd1973-09-24d2t02.flac
677f75c72997ecd04ebbd0e8974e2566 *gd1973-09-24d2t03.flac
c655047005fe432a91b3aab4e1dffd50 *gd1973-09-24d2t04.flac
2f6b4e91f24af6f3f1b61e9464c7f321 *gd1973-09-24d2t05.flac
3c5034c56dd19f1a522e13b3b999bcd9 *gd1973-09-24d2t06.flac
c471f7d4272735691487d903110a5d9d *gd1973-09-24d2t07.flac
50d4dad1d3bea3534bf7cc0fc72fdf41 *gd1973-09-24d2t08.flac
7c49180b3ca1583a822fd01eeb0668f6 *gd1973-09-24d2t09.flac
08ad050e63d316c821278ea3567d04d2 *gd1973-09-24d3t01.flac
c39c98355320a6d650757a732431d32a *gd1973-09-24d3t02.flac
5ccb3afe46764408f6b83ef1df54e2a6 *gd1973-09-24d3t03.flac
4a3bfbc7063d4b23cdf9bd585ec2ed60 *gd1973-09-24d3t04.flac
b0393d2069a0417c26f078e6a902ced2 *gd1973-09-24d3t05.flac
22e9feb47d07dac0260ab1663b918c0c *gd1973-09-24d3t06.flac
21ffeec163dced877f0af3c190a9730a *gd1973-09-24d3t07.flac

Comments
Add Comment
Other Sources (comments)
partial sets 1,2; Unknown... (0) Mixed AUD/SBD sources; See... (1) flac16; Mixed... (0) flac16; Matrix 4... (0) DTS-Audio-CD 5.1... (0) flac24; Lineage is... (0) flac16; Lineage is... (1)
Date User Comment