Browse Collections Artists Sources   Search Dates

Add Show    List Management    Help


Grateful Dead 09/11/81
Greek Theatre, U. Of California, Berkeley, CA
Comments Add Comment    Source Collectors    Add to Collection    Add to Want List    History
Source # 95743 Other Sources
Entered by dr.unclear
Checksums flac-md5 , ffp
Disc Counts 2 / 3
Media Size
Date Circulated
Date Added
11/11/2008
11/11/2008
Source Summary flac16; Recording Info: (FOB) Nakamichi 300/CP1 -> Cassette Master (Sony TC-D5M/Maxell UDXLII); Transfer Info:Cassette Master (Nakamichi DR-1) -> Sound Devices 744T (24bit/96k) -> Samplitude Professional v10.1 -> FLAC/16; Recorded by Joani Walker; All Transfers and Mastering By Charlie Miller 
  Archive
Source Information - Download Text | Download Zip
Grateful Dead - September 11, 1981
Greek Theatre - Berkeley, CA
University Of California

Recording Info:
(FOB) Nakamichi 300/CP1 -> Cassette Master (Sony TC-D5M/Maxell UDXLII)

Transfer Info:
Cassette Master (Nakamichi DR-1) -> Sound Devices 744T (24bit/96k) ->
Samplitude Professional v10.1 -> FLAC/16
(3 Discs Audio / 2 Discs FLAC)

All Transfers and Mastering By Charlie Miller
[email protected]
November 10, 2008

Patch Info:
(FOB) Sennheiser 421 -> Cassette Master -> CD (shnid=7090) supplies:
Space (4:11 - 4:20)

Notes:
-- Set 2 is seamless
-- Recorded by Joani Walker
-- Thanks to Paul Scotton and Joani Walker for the tapes
-- Thanks to Joe B. Jones for his help with the pitch correction

Set 1:
d1t01 - Happy Birthday Mickey
d1t02 - New Minglewood Blues
d1t03 - They Love Each Other
d1t04 - Mama Tried ->
d1t05 - Mexicali Blues
d1t06 - Candyman ->
d1t07 - Little Red Rooster
d1t08 - Cumberland Blues ->
d1t09 - Beat It On Down The Line
d1t10 - Althea
d1t11 - Lost Sailor ->
d1t12 - Saint Of Circumstance ->
d1t13 - Deal

Set 2:
d2t01 - Tuning
d2t02 - Feel Like A Stranger ->
d2t03 - Franklin's Tower
d2t04 - Man Smart (Woman Smarter)
d2t05 - He's Gone ->
d2t06 - Truckin' ->
d2t07 - Drums ->
d3t01 - Space ->
d3t02 - The Other One ->
d3t03 - Morning Dew ->
d3t04 - Johnny B. Goode

Encore:
d3t05 - Don't Ease Me In


SHNTOOL OUTPUT:
    length     expanded size   cdr  WAVE problems filename
     1:58.74       20989292    ---   --   -----   gd81-09-11d1t01.wav
     6:34.63       69649820    ---   --   -----   gd81-09-11d1t02.wav
     7:19.22       77491388    ---   --   -----   gd81-09-11d1t03.wav
     2:31.38       26725820    ---   --   -----   gd81-09-11d1t04.wav
     5:22.61       56944316    ---   --   -----   gd81-09-11d1t05.wav
     6:39.30       70454204    ---   --   -----   gd81-09-11d1t06.wav
     8:34.68       90829580    ---   --   -----   gd81-09-11d1t07.wav
     4:45.12       50302268    ---   --   -----   gd81-09-11d1t08.wav
     3:22.09       35654012    ---   --   -----   gd81-09-11d1t09.wav
     9:27.08      100037660    ---   --   -----   gd81-09-11d1t10.wav
     7:20.20       77663084    ---   --   -----   gd81-09-11d1t11.wav
     7:18.70       77427884    ---   --   -----   gd81-09-11d1t12.wav
     8:15.37       87405068    ---   --   -----   gd81-09-11d1t13.wav
     1:07.39       11910572    ---   --   -----   gd81-09-11d2t01.wav
     7:21.68       77952380    ---   --   -----   gd81-09-11d2t02.wav
    15:26.49      163461692    ---   --   -----   gd81-09-11d2t03.wav
     5:53.31       62342156    ---   --   -----   gd81-09-11d2t04.wav
    12:50.50      135945644    ---   --   -----   gd81-09-11d2t05.wav
    12:31.16      132514076    ---   --   -----   gd81-09-11d2t06.wav
     8:34.33       90747260    ---   --   -----   gd81-09-11d2t07.wav
     7:16.10       76933964    ---   --   -----   gd81-09-11d3t01.wav
     9:17.61       98398316    ---   --   -----   gd81-09-11d3t02.wav
    11:04.31      117202556    ---   --   -----   gd81-09-11d3t03.wav
     5:55.49       62737292    ---   --   -----   gd81-09-11d3t04.wav
     3:15.46       34506236    ---   --   -----   gd81-09-11d3t05.wav
   180:06.20     1906226540 B                     (totals for 25 files)
Show Checksums
flac-md5
cbc14e60b466806c1b7a0c2dd8b67594 *gd81-09-11d1t01.flac
390448a86e2f0e1b017cfba756ebd75b *gd81-09-11d1t02.flac
b8cff369083a84ac7e70a6bdc1e16ca3 *gd81-09-11d1t03.flac
371aa92df93319fc120a935ec17615fc *gd81-09-11d1t04.flac
46845de4a2d61958c122dea98e0d4afd *gd81-09-11d1t05.flac
52d4ab2955fed3674f36860d33e21961 *gd81-09-11d1t06.flac
ad129a13645b7a96c6c80c0263599960 *gd81-09-11d1t07.flac
ff03a4522128da08546019167dc60f7d *gd81-09-11d1t08.flac
7dad78236df1201be0211fdb90d36647 *gd81-09-11d1t09.flac
5928e38b50e0b18a1b0952c11ed4f716 *gd81-09-11d1t10.flac
778eec12ebc0b8e75011c58504054c32 *gd81-09-11d1t11.flac
297cd59e949a9d7eeb93e2a24adbab1c *gd81-09-11d1t12.flac
abe5b441acec3301fd782e97720b93ba *gd81-09-11d1t13.flac
2484de18221813660ade0c6fb088c784 *gd81-09-11d2t01.flac
b3d5d18674534bd6ba7b7922b29f8c40 *gd81-09-11d2t02.flac
4963e75a437f85e44965b53f6484b658 *gd81-09-11d2t03.flac
7e9cc859af089661189e0a737f7f24a3 *gd81-09-11d2t04.flac
f4478ed6629e4f80450e17dc4614a4d5 *gd81-09-11d2t05.flac
d89a9c87a9132435e81ed72ec54bb097 *gd81-09-11d2t06.flac
abf050932465204ba97454d6a26b4906 *gd81-09-11d2t07.flac
1b95bd885d3078cbb79f5b12144565ee *gd81-09-11d3t01.flac
90cddfac3163d3cfc5c1b7df0a9ed1e5 *gd81-09-11d3t02.flac
e2d24a67ebc590e19d25326ea2cb9348 *gd81-09-11d3t03.flac
e5b995ec8fcddac30f88644a058aa5d2 *gd81-09-11d3t04.flac
43dfd5e359f0f51627faa4640ca5b8c6 *gd81-09-11d3t05.flac
ffp
gd81-09-11d1t01.flac:dd05a47a4625b89ad100d4ab3a1dcde8
gd81-09-11d1t02.flac:346468d91f0a6b95f5d38772174bfbc7
gd81-09-11d1t03.flac:2a1563005f14afb7746d609e7a473636
gd81-09-11d1t04.flac:dfd19a0fdef796f89a1389262a73486a
gd81-09-11d1t05.flac:3dbdd9b227ae3d7a0550cf29315f8d88
gd81-09-11d1t06.flac:d32d035b90a38a8de4d9ae2e6688996c
gd81-09-11d1t07.flac:3b534fce894c161c33b328967974f572
gd81-09-11d1t08.flac:e86ea267ccf445ae43bfe94cb40f80f9
gd81-09-11d1t09.flac:b1d4713b59fba3881227dd26b35d921e
gd81-09-11d1t10.flac:acc8acef5b94b8b00eaf40a935371520
gd81-09-11d1t11.flac:5f4a5f9af4acccf43cf29f030232d089
gd81-09-11d1t12.flac:0e66b05a8620a754ac3db4d58f08c3a6
gd81-09-11d1t13.flac:6e1ce5b5b0ec7770e75c503f25ac93f6
gd81-09-11d2t01.flac:fb5769b234b0bf9d933e3a6791406ef4
gd81-09-11d2t02.flac:0dbc34cf1abe043a56253b65b0938513
gd81-09-11d2t03.flac:ba801deb7309896dac43e36299548e46
gd81-09-11d2t04.flac:f62a7d119d290869d49656c47b0b68f4
gd81-09-11d2t05.flac:a025572e341ac9f205bb9588f1e59d10
gd81-09-11d2t06.flac:929c345ec6ce81860692e0e9cba79536
gd81-09-11d2t07.flac:a546b4847d3c9e5778ac151cbf95a8af
gd81-09-11d3t01.flac:dd06796acb562c23b8a3e5fe48e7faae
gd81-09-11d3t02.flac:6ddc426e55aafdda6bde82318d1d7e3e
gd81-09-11d3t03.flac:5db5cc46988a51cff9e8713f1132f60b
gd81-09-11d3t04.flac:ff314e0f81713f91483713c4b046a688
gd81-09-11d3t05.flac:fe7d55866ea8291c44912d6759cb9143

Comments
Add Comment
Other Sources (comments)
Recording by Jim Wise.... (0) flac16; 2 nak 300... (1) flac16; Source:... (0) flac24; Recorded,... (0) flac16; Recorded,... (0)
Date User Comment