Browse Collections Artists Sources   Search Dates

Add Show    List Management    Help


Grateful Dead 10/19/81
Sports Palace, Barcelona, Spain
Comments Add Comment    Source Collectors    Add to Collection    Add to Want List    History
Source # 95781 Other Sources
Entered by dr.unclear
Checksums flac-md5 , ffp
Disc Counts 2 / 3
Media Size
Date Circulated
Date Added
11/13/2008
11/13/2008
Source Summary flac16; Recording Info:SBD -> Cassette Master -> Cassette -> Dat -> CD -> EAC -> SHN; Transfer Info:SHN -> Adobe Audition v1.5 -> Samplitude Professional v10.1 -> FLAC; All Transfers and Mastering By Charlie Miller 
  Archive
Source Information - Download Text | Download Zip
Grateful Dead - October 19, 1981
Sports Palace - Barcelona, Spain

Recording Info:
SBD -> Cassette Master -> Cassette -> Dat -> CD -> EAC -> SHN

Transfer Info:
SHN -> Adobe Audition v1.5 -> Samplitude Professional v10.1 -> FLAC
(3 Discs Audio / 2 Discs FLAC)

All Transfers and Mastering By Charlie Miller
[email protected]
November 12, 2008

Notes:
-- Set 2 disc change is seamless
-- This is a clean up of shnid=7914
-- The mix is a mess not much I could about that
-- Phil is not in mix for first few songs
-- Tape flip between Space and Drums cleaned up with crossfade
-- Thanks to Joe B. Jones for his help with the pitch correction

Set 1:
d1t01 - Jack Straw ->
d1t02 - Franklin's Tower
d1t03 - Mama Tried ->
d1t04 - Mexicali Blues
d1t05 - Loser ->
d1t06 - C C Rider
d1t07 - Tennessee Jed
d1t08 - Passenger
d1t09 - Althea ->
d1t10 - Let It Grow

Set 2:
d2t01 - Scarlet Begonias ->
d2t02 - Fire On The Mountain ->
d2t03 - Lost Sailor ->
d2t04 - Saint Of Circumstance ->
d2t05 - Space ->
d2t06 - Drums ->
d3t01 - Space ->
d3t02 - Spanish Jam ->
d3t03 - The Other One ->
d3t04 - Stella Blue ->
d3t05 - Sugar Magnolia

Encore:
d3t06 - Don't Ease Me In


SHNTOOL OUTPUT:
    length     expanded size   cdr  WAVE problems filename
     5:44.51       60801596    ---   --   -----   gd81-10-19d1t01.wav
    13:38.29      144363452    ---   --   -----   gd81-10-19d1t02.wav
     2:29.33       26361260    ---   --   -----   gd81-10-19d1t03.wav
     5:03.18       53491580    ---   --   -----   gd81-10-19d1t04.wav
     7:11.44       76131932    ---   --   -----   gd81-10-19d1t05.wav
     8:30.19       90008732    ---   --   -----   gd81-10-19d1t06.wav
     9:20.56       98915756    ---   --   -----   gd81-10-19d1t07.wav
     5:08.40       54425324    ---   --   -----   gd81-10-19d1t08.wav
     7:59.13       84526220    ---   --   -----   gd81-10-19d1t09.wav
    14:28.49      153230492    ---   --   -----   gd81-10-19d1t10.wav
    14:12.02      150297548    ---   --   -----   gd81-10-19d2t01.wav
     9:52.65      104581724    ---   --   -----   gd81-10-19d2t02.wav
     7:14.34       76637612    ---   --   -----   gd81-10-19d2t03.wav
     7:40.61       81287516    ---   --   -----   gd81-10-19d2t04.wav
     5:34.30       58988204    ---   --   -----   gd81-10-19d2t05.wav
     5:01.28       53162300    ---   --   -----   gd81-10-19d2t06.wav
     1:36.15       16969724    ---   --   -----   gd81-10-19d3t01.wav
     2:56.33       31124060    ---   --   -----   gd81-10-19d3t02.wav
     8:14.41       87238076    ---   --   -----   gd81-10-19d3t03.wav
     9:50.53      104200700    ---   --   -----   gd81-10-19d3t04.wav
    10:54.64      115516172    ---   --   -----   gd81-10-19d3t05.wav
     3:14.25       34280444    ---   --   -----   gd81-10-19d3t06.wav
   165:57.53     1756540424 B                     (totals for 22 files)
Show Checksums
flac-md5
20f41ce413ebf1183d7d9abf9e04bc97 *gd81-10-19d1t01.flac
adab0d12b6a460c4751e6294b16b6f4f *gd81-10-19d1t02.flac
cf5f5f22962bceb196cf5c63b5a58dc9 *gd81-10-19d1t03.flac
83f73e92d0bd51f9c22828c01cde5a84 *gd81-10-19d1t04.flac
bf78a1ac25ae7ac971173b6598b12ea8 *gd81-10-19d1t05.flac
19b5f62121249ec8256626d6bc6ad40f *gd81-10-19d1t06.flac
1ab42e7ba49b0a221645ebe5a99f3c44 *gd81-10-19d1t07.flac
a184e4e0b93fdb4e4d23ac384f4b0c50 *gd81-10-19d1t08.flac
649da488ca327a55e613c24d72169b84 *gd81-10-19d1t09.flac
24b119a4fcbefaf10fc9c189de1aef20 *gd81-10-19d1t10.flac
7e280b94c1ee9e8e4467f7a4bb7697c1 *gd81-10-19d2t01.flac
d4bb0d06253a4f435ba3fbab2d315f07 *gd81-10-19d2t02.flac
13eed26e5923bb6b77b4a6d0975f5158 *gd81-10-19d2t03.flac
22df69f3d84b0fc3f63b70c5ec88bc25 *gd81-10-19d2t04.flac
121934f4c4a5573c6ef7bcb52394bfe1 *gd81-10-19d2t05.flac
7e71de32e24b234adf395f9475999d84 *gd81-10-19d2t06.flac
e3cc94ada33906d4f9f8a7b94b632cb9 *gd81-10-19d3t01.flac
f0d0af5b90fb50a0ff836ae620e48fed *gd81-10-19d3t02.flac
8fcb6aba9f888f327ec2826cee5e2049 *gd81-10-19d3t03.flac
88967db751c7363e5195255587c4c574 *gd81-10-19d3t04.flac
f7c6b2d107779d4dadb27d02ed3b6678 *gd81-10-19d3t05.flac
14a3027663236cd38918f88eb3829a9b *gd81-10-19d3t06.flac
ffp
gd81-10-19d1t01.flac:905718a8aaa47a3d48707857eda6fc10
gd81-10-19d1t02.flac:ea3c4cf2415caf6bea6224bd9741e535
gd81-10-19d1t03.flac:53dcb47a75bfc508fc174c6a1412a948
gd81-10-19d1t04.flac:60a47984ffb4f5988b74204b2726baa5
gd81-10-19d1t05.flac:d1cd6b5a092ed8f24859b442bd8e496e
gd81-10-19d1t06.flac:164417c984246a2fa10887fac6cfd164
gd81-10-19d1t07.flac:21011b3196efa92ab084ff07a78246f3
gd81-10-19d1t08.flac:b9ad5e4710e395dee07c86526182bced
gd81-10-19d1t09.flac:88d4d71920d832bf564d604036f9be92
gd81-10-19d1t10.flac:f370460a4a0285f603b550363ff6dbca
gd81-10-19d2t01.flac:9365cefd0d625aefe67c498689e9b706
gd81-10-19d2t02.flac:91863a045314c0fe0f843be02c172d72
gd81-10-19d2t03.flac:410f98e4720d9b840e98fd6fc4b35bf0
gd81-10-19d2t04.flac:1d336883190e6a991f5318fd459fa480
gd81-10-19d2t05.flac:83ac099db5354e3d16cda77f7686ef03
gd81-10-19d2t06.flac:dbebed7885d940043fbbb1a9e80f2cd8
gd81-10-19d3t01.flac:6d39b61e8eba9968400db30ba8a359cf
gd81-10-19d3t02.flac:b48b3d67dc312eacc27d76ad4723f1a1
gd81-10-19d3t03.flac:60774f71da8a849393cfd6425baa5866
gd81-10-19d3t04.flac:609ef91a60bb2ead34cdb306b5b47569
gd81-10-19d3t05.flac:4f117a5c0d9df899ec2c372a67e97b33
gd81-10-19d3t06.flac:12e93e308e01f30582f8695d84a2c6f6

Comments
Add Comment
Other Sources (comments)
SBD: CM > CASS > DAT > Pro... (1) flac16: recording:... (1) flac24; Beyer... (0) flac16; Source:... (0) flac16; 2 source... (1)
Date User Comment