Browse Collections Artists Sources   Search Dates

Add Show    List Management    Help


Grateful Dead 04/30/89
Irvine Meadows, Irvine, CA
Comments Add Comment    Source Collectors    Add to Collection    Add to Want List    History
Source # 95853 Other Sources
Entered by Matt Vernon
Checksums ffp , flac-md5
Disc Counts 2 / 3
Media Size
Date Circulated
Date Added
11/16/2008
11/16/2008
Source Summary flac16; FOB AUD: Nakamichi CM-300's with CP-1 cardioid capsules > Sony TC-D5M > Maxell MX-90's, 17th row. Taped by Alabama Bob. Transfer: MAC > Nakamichi DR-8 (no Dolby) > Audiophile 2496 > Wavelab > CD-Wave > TLH > FLAC 1644. Transfer by Andrew F. 
  Archive
Source Information - Download Text | Download Zip
GRATEFUL DEAD
Meadows Amphitheatre
Irvine CA
04-30-1989

Disc One (55:12)

01 crowd & tuning
02 Mississippi Half Step >
03 Wang Dang Doodle
04 Stagger Lee
05 When I Paint My Masterpiece
06 Tennessee Jed
07 We Can Run
08 Picasso Moon
09 Deal
-- set break --

Disc Two (46:44)

01 Box of Rain
02 Iko Iko
03 Estimated Prophet >
04 Eyes of the World >
05 Drums//

Disc Three (55:52)

04 Space >
05 Truckin' >
06 Gimme Some Lovin' >
07 Stella Blue >
08 Around & Around
09 Good Lov//in'
-- encore --
10 It's All Over Now, Baby Blue

FOB AUD: Nakamichi CM-300's with CP-1 cardioid capsules >
Sony TC-D5M > Maxell MX-90's, 17th row. Taped by Alabama Bob.

Transfer: MAC > Nakamichi DR-8 (no Dolby) > Audiophile 2496 >
Wavelab > CD-Wave > TLH > FLAC 1644. Transfer by Andrew F.

Notes:
- Caveat... plenty of intrusive crowd noise in the recording.
- Jet noise from airshow during Wang Dang and Tennessee Jed.
- False start at beginning of Picasso Moon.  
- Tape flip at end of Drums.
- Goin' Down the Road fake before Good Lovin'.
- Tape flip near end of Good Lovin' at 5:31.
- Final GD performance at this venue.

    length     expanded size    cdr  WAVE problems  fmt   ratio  filename
     1:11.30       12595004 B   ---   --   ---xx   flac  0.5236  gd1989-04-30d1t01.flac
     7:32.60       79873964 B   ---   --   ---xx   flac  0.5919  gd1989-04-30d1t02.flac
     7:45.17       82066028 B   ---   --   ---xx   flac  0.5812  gd1989-04-30d1t03.flac
     5:31.20       58435484 B   ---   --   ---xx   flac  0.5925  gd1989-04-30d1t04.flac
     5:58.13       63181820 B   ---   --   ---xx   flac  0.5928  gd1989-04-30d1t05.flac
     7:33.42       80008028 B   ---   --   ---xx   flac  0.6021  gd1989-04-30d1t06.flac
     5:37.73       59618540 B   ---   --   ---xx   flac  0.6060  gd1989-04-30d1t07.flac
     5:34.65       59070524 B   ---   --   ---xx   flac  0.6167  gd1989-04-30d1t08.flac
     8:27.17       89474828 B   ---   --   ---xx   flac  0.6114  gd1989-04-30d1t09.flac
     5:24.31       57226556 B   ---   --   ---xx   flac  0.5875  gd1989-04-30d2t01.flac
     8:08.71       86250236 B   ---   --   ---xx   flac  0.6106  gd1989-04-30d2t02.flac
    12:09.01      128597996 B   ---   --   ---xx   flac  0.5883  gd1989-04-30d2t03.flac
    13:53.39      147032972 B   ---   --   ---xx   flac  0.6002  gd1989-04-30d2t04.flac
     7:08.63       75647420 B   ---   --   ---xx   flac  0.5840  gd1989-04-30d2t05.flac
    15:47.58      167187260 B   ---   --   ---xx   flac  0.5452  gd1989-04-30d3t01.flac
     7:17.44       77190332 B   ---   --   ---xx   flac  0.6050  gd1989-04-30d3t02.flac
     5:15.64       55716572 B   ---   --   ---xx   flac  0.6129  gd1989-04-30d3t03.flac
     8:08.51       86203196 B   ---   --   ---xx   flac  0.5565  gd1989-04-30d3t04.flac
     4:35.44       48613532 B   ---   --   ---xx   flac  0.6033  gd1989-04-30d3t05.flac
     7:11.68       76188380 B   ---   --   ---xx   flac  0.6025  gd1989-04-30d3t06.flac
     7:35.24       80318492 B   ---   --   ---xx   flac  0.5768  gd1989-04-30d3t07.flac
   157:49.70     1670497164 B                            0.5896  (21 files)

No errors occured.
Show Checksums
ffp
gd1989-04-30d1t01.flac:225c14f323d5eff03ed5b8c79b3b42c4
gd1989-04-30d1t02.flac:c4bec9af80e36275e1c5351ea6d5fb52
gd1989-04-30d1t03.flac:adfaaa54d8009867fc1ed26fec1e530c
gd1989-04-30d1t04.flac:83dc00c5b1c227f81fa15c1b8f2cfb9d
gd1989-04-30d1t05.flac:7ea51f961251747ad571cf78c2c470b0
gd1989-04-30d1t06.flac:cc0384bc4b0ca4321f5bc7ef369b2515
gd1989-04-30d1t07.flac:9e864ba87152d873436a072c05021545
gd1989-04-30d1t08.flac:1d4c107d30c46d7ffc36326e1cb198b2
gd1989-04-30d1t09.flac:8da88d1a138b45d744017ee97a03aac7
gd1989-04-30d2t01.flac:42531203b33e83d91dda8aea2104eb75
gd1989-04-30d2t02.flac:bc608105fe236f0a5b8fc0877ddd0870
gd1989-04-30d2t03.flac:b7f3bfc437909fd669c74251b42f95ad
gd1989-04-30d2t04.flac:d217a42a44b082f622c6294ca233cdcf
gd1989-04-30d2t05.flac:5dd705dd4f4b289b97f5f6115158885a
gd1989-04-30d3t01.flac:b924678df1a3a6cffbe12e1d3ae32e1c
gd1989-04-30d3t02.flac:9e34672f0552257cc966aa07a69f34cf
gd1989-04-30d3t03.flac:74b4c0be4081190f68fa9a8c015fc4a4
gd1989-04-30d3t04.flac:0b02a376208035e86bb7ea93dde606b6
gd1989-04-30d3t05.flac:a216b9816d8dce5de7f4b7798691c59e
gd1989-04-30d3t06.flac:cc898a473680f0d94d6a9ca1cd1b2054
gd1989-04-30d3t07.flac:6c774df6fb0d67f388f004cf914d0cda
flac-md5
33228cc2c1b1738e50b0ae57b4895f75 *gd1989-04-30d1t01.flac
6c5fb44f49b179fd101b5f44ed5d8b2a *gd1989-04-30d1t02.flac
87b49f15ed0ecaf5847c9c2700f4b1bf *gd1989-04-30d1t03.flac
7d86d20c15ee9d68a7fa98da8b47000a *gd1989-04-30d1t04.flac
609b3054450aba089d0cf9788d44f8f8 *gd1989-04-30d1t05.flac
843a071feb48b717f15ded552edf9133 *gd1989-04-30d1t06.flac
1f83a6d80321359376957be7c6a5a2ad *gd1989-04-30d1t07.flac
031f4593769baa91b3797f85fbb7fd1e *gd1989-04-30d1t08.flac
848785f3ed38ac10f425a68d24d3ba76 *gd1989-04-30d1t09.flac
3546429417938c6950e258ba1c06e0e9 *gd1989-04-30d2t01.flac
f85bb0b54b9109ca079a45518e87353f *gd1989-04-30d2t02.flac
758668e74aaccaa5e7c2c43c1498df90 *gd1989-04-30d2t03.flac
1369789f44eb8f9dc339a958c5e0f821 *gd1989-04-30d2t04.flac
557f5f619c334635a36c670813781663 *gd1989-04-30d2t05.flac
9afcaa355e799cf9230c5b8a0e2fbb53 *gd1989-04-30d3t01.flac
0ab87cbd78832e27c0f9484d59bcaac5 *gd1989-04-30d3t02.flac
4723d95698193ad00a2616fd569ffee3 *gd1989-04-30d3t03.flac
1f05b98f4cb5f04c26cf1421ee68b1c4 *gd1989-04-30d3t04.flac
90c276c924d2caefdfe8b644d69b79e3 *gd1989-04-30d3t05.flac
9edd0d19ee5f8cea9fb4f819a4765ecc *gd1989-04-30d3t06.flac
76b0289fb97466a0294eb410f1ff0ad5 *gd1989-04-30d3t07.flac

Comments
Add Comment
Other Sources (comments)
Master Soundboard Cassette... (0) flac16; Recording... (0) flac16; Set 1 Source... (0)
Date User Comment