Browse Collections Artists Sources   Search Dates

Add Show    List Management    Help


Garcia 05/22/81
Warfield Theater, San Francisco, CA
Comments Add Comment    Source Collectors    Add to Collection    Add to Want List    History
Source # 95938 Other Sources
Entered by dr.unclear
Checksums ffp , flac-md5
Disc Counts 1 / 1
Media Size
Date Circulated
Date Added
11/21/2008
11/20/2008
Source Summary flac16; Recording Info:Nakamichi 300/CP1 -> Cassette Master (Sony D5M/Maxell UDXLII90); Transfer Info:Cassette Master (Nakamichi DR-1) -> Sound Devices 744T (24bit/96k) -> Samplitude Professional v10.1 -> FLAC/16; Recorded By Joani Walker;All Transfers and Mastering By Charlie Miller 
  Archive
Source Information - Download Text | Download Zip
Grateful Dead - May 22, 1981
Warfield Theatre - San Francisco, CA

Recording Info:
Nakamichi 300/CP1 -> Cassette Master (Sony D5M/Maxell UDXLII90)

Transfer Info:
Cassette Master (Nakamichi DR-1) -> Sound Devices 744T (24bit/96k) ->
Samplitude Professional v10.1 -> FLAC/16
(1 Disc Audio / 1 Disc FLAC)

All Transfers and Mastering By Charlie Miller
[email protected]
November 20, 2008

Notes:
-- Acoustic show
-- The crowd is very loud on this recording
-- Recorded By Joani Walker
-- Thanks to Paul Scotton and Joani Walker for the tapes

Set 1:
d1t01 - Tuning
d1t02 - Deep Elem Blues
d1t03 - The Race Is On
d1t04 - Friend Of The Devil
d1t05 - Cassidy
d1t06 - To Lay Me Down
d1t07 - Monkey And The Engineer
d1t08 - Oh Babe It Ain't No Lie
d1t09 - On The Road Again
d1t10 - Bird Song ->
d1t11 - Ripple ->
d1t12 - Drums ->
d1t13 - Oh Boy


SHNTOOL OUTPUT:
    length     expanded size   cdr  WAVE problems filename
     1:04.13       11320220    ---   --   -----   gd81-05-22d1t01.wav
     5:26.32       57581708    ---   --   -----   gd81-05-22d1t02.wav
     2:53.63       30665420    ---   --   -----   gd81-05-22d1t03.wav
     9:36.04      101615852    ---   --   -----   gd81-05-22d1t04.wav
     5:19.27       56335148    ---   --   -----   gd81-05-22d1t05.wav
     9:01.04       95441852    ---   --   -----   gd81-05-22d1t06.wav
     3:00.68       31911980    ---   --   -----   gd81-05-22d1t07.wav
     6:13.70       65961884    ---   --   -----   gd81-05-22d1t08.wav
     3:02.21       32154236    ---   --   -----   gd81-05-22d1t09.wav
     6:26.28       68156300    ---   --   -----   gd81-05-22d1t10.wav
     4:05.70       43382684    ---   --   -----   gd81-05-22d1t11.wav
     7:57.06       84156956    ---   --   -----   gd81-05-22d1t12.wav
     2:25.39       25669772    ---   --   -----   gd81-05-22d1t13.wav
    66:32.70      704354012 B                     (totals for 13 files)
Show Checksums
ffp
gd81-05-22d1t01.flac:be19f90271275d947bc8d3301714fb10
gd81-05-22d1t02.flac:9c5219f7beab21ba201908ff40ad3d06
gd81-05-22d1t03.flac:581bb47d8a841944ccbaaddb514d1361
gd81-05-22d1t04.flac:af68db22cce293fe0d2a74dfa177ec82
gd81-05-22d1t05.flac:18393e75ea71c29209c0488db0d06fbf
gd81-05-22d1t06.flac:e9e76954d8e7013b29c1fa30551ab155
gd81-05-22d1t07.flac:3f29ed75b82549d6dc66ceed515435df
gd81-05-22d1t08.flac:16d2366a46dfa5f645226d7a4c4ce9d8
gd81-05-22d1t09.flac:76e795e84ad2815d929c474c55eb5a43
gd81-05-22d1t10.flac:7ab83a521874e9a491a233e654ac408a
gd81-05-22d1t11.flac:7b2185419938da9c4ead74f98b8a61f3
gd81-05-22d1t12.flac:a9d4db5304efb2e04080c07bf29eef64
gd81-05-22d1t13.flac:6666e2027f343b61e5c5da0981effbfa
flac-md5
b8867f4b32b1e43cf0e9efbee4e12159 *gd81-05-22d1t01.flac
367b792d7d65f9590356a34f1d38c8ab *gd81-05-22d1t02.flac
ed945d4af155f3f2bdc55e83c0c9278c *gd81-05-22d1t03.flac
26a6493bae510af80cf06ec65f7d4d2e *gd81-05-22d1t04.flac
14dbb31fec214dc32aa821dec4f77dc6 *gd81-05-22d1t05.flac
3ea1da525a5800261e2c2dda150dbead *gd81-05-22d1t06.flac
3f9d00646269a827a6d833d89ea769da *gd81-05-22d1t07.flac
0d461b78e9bd812ed8804d95fc339f24 *gd81-05-22d1t08.flac
fb77e8df02f0f67b32aa9a26da8fa3a3 *gd81-05-22d1t09.flac
6b6a34f42c01c0f815450da46ff1c95a *gd81-05-22d1t10.flac
27c0dca53d93befed7c9b93e0d31952b *gd81-05-22d1t11.flac
3b12de9cdeef699f330ef5b49aac885b *gd81-05-22d1t12.flac
90093db5701c2214873507cfe74d45e3 *gd81-05-22d1t13.flac

Comments
Add Comment
Other Sources (comments)
AUD>MC>DAT>CDR; Nuclear... (0) Jerry Garcia & Friends: MAC... (0) Jerry Garcia & Friends:... (0)
Date User Comment