Browse Collections Artists Sources   Search Dates

Add Show    List Management    Help


Phil Lesh & Friends 11/01/07
Nokia Theater, New York, NY
Comments Add Comment    Source Collectors    Add to Collection    Add to Want List    History
Source # 95942 Other Sources
Entered by Matt Vernon
Checksums ffp , flac-md5
Disc Counts 2 / 3
Media Size
Date Circulated
Date Added
11/21/2008
11/21/2008
Source Summary SBD+AUD Matrix (Approx. 55% SBD + 45% AUD)
Source info: SBD - shnid: 89180 - Phillesh.net free SBD FLAC AUD - shnid: 88515 - B+K 4021's > PSP3 > PMD660 FLAC Lineage: SBD FLAC> xACT> AIFF/AUD FLAC> xACT> AIFF> Soundtrack Professional 2.0 (mixdown/eq/final mix)> AIFF> sound studio (tracking)> WAV> xACT> FLAC All mixing and conversions done by: ekoostikal ([email protected])  
  Archive
Source Information - Download Text | Download Zip
Phil Lesh & Friends
2007-11-01
Nokia Theatre
New York City, NY

SBD+AUD Matrix (Approx. 55% SBD + 45% AUD)

Source info:
SBD - shnid: 89180 - Phillesh.net free SBD FLAC
AUD - shnid: 88515 - B+K 4021's > PSP3 > PMD660 FLAC
Lineage: SBD FLAC> xACT> AIFF/AUD FLAC> xACT> AIFF> Soundtrack Professional 2.0 (mixdown/eq/final mix)> AIFF> sound studio (tracking)> WAV> xACT> FLAC

All mixing and conversions done by: ekoostikal ([email protected])

Set 1:
01. Friend Of The Devil
02. Gone Wonderin'
03. Deep Elem Blues
04. Like A Ball & Chain
05. Deal >
06. Seven Jealous Sisters
07. Alabama Getaway

Set 2:
01. Tuning
02. China Cat Sunflower >
03. Jam >
04. Althea
05. I'm So Gone >
06. Jam >
07. Cumberland Blues >
08. Uncle John's Band >
09. Don't Let Me Down
10. Help On The Way > Slipknot! >
11. Franklin's Tower
Encore:
12. Donor Rap/Band Intros
13. Ripple

If burning to CD I would suggest all of set 1 on disc 1, and set 2 tracks 1-9 on cd 2, then set 2 tracks 10-13 on disc 3. Disc change is seamless.

******************* Mixdown Notes *********************************

All tracks were converted to AIFF format from flac for smoother intigration into Soundtrack Professional. Each set was joined into one long file and then both sources were aligned and tracks were split then synced on an individual basis.

The SBD was mixed at (-) 1.5db
The AUD was mixed at (-) 9.5db - The AUD source was about 8db higher than the SBD source to begin with. Both Sources peaked around -10db before any eq was applied.

The SBD source was then ran through some filtering and very minor equalization before the final mix eq.

Both sources were then sent through the final equalization stage after mixdown to bring up the low end and smooth out the highs as well as add a little more depth and open up the sound stage a little more. I eq'd the entire show a close to flat as I could get then added a little more bottom end to suit my personal taste. I like to actually hear Phil's bass in the mix and it was unusually low during this run at the Nokia.

The SBD source suffers from the same clicks as all the other free SBD's of this run. I ran some different filtering this time and thing I smoothed them out pretty good in this matrix. They do however show up during some points in the show. I still find it very enjoyable to listen to and feel personally this is an upgrade to the current circulating sources of this show.

From 8:55 > 8:59 during Help > Slipknot the AUD source drops out completely. There was unfixable digital noise and static so I had to delete that portion of the AUD source. I tried to make the transition as smooth as possible and The dropout is not really distracting.

Both sources were then mixed to 2 channel stereo AIFF. Tracks were split using Sound Studio and outputted as WAV 16/44100. xACT was used to align sector boundaries and then convert to FLAC

All transfers and mixing were done by: ekoostikal ([email protected])

This project was completed, November 20th, 2008

************** PLEASE DO NOT DISTRIBUTE IN LOSSY FORMAT ***************
****** NEVER SELL/TRADE/DISTRIBUTE FOR MONETARY GAIN OF ANY KIND ******
************ PLEASE SUPPORT PHIL BY GOING TO SEE HIM LIVE *************

For the Phans! by the Phans!

~Enjoy!!


shntool:
   length     expanded size    cdr  WAVE problems  fmt   ratio  filename
     6:57.08       73577660 B   ---   --   ---xx  plf2007-11-01.mtx.sbeok.set1t01.flac
     3:32.32       37472108 B   ---   --   ---xx  plf2007-11-01.mtx.sbeok.set1t02.flac
     8:45.69       92772332 B   ---   --   ---xx  plf2007-11-01.mtx.sbeok.set1t03.flac
     4:46.61       50593916 B   ---   --   ---xx  plf2007-11-01.mtx.sbeok.set1t04.flac
    13:20.00      141120044 B   ---   --   ---xx  plf2007-11-01.mtx.sbeok.set1t05.flac
     7:27.24       78907292 B   ---   --   ---xx  plf2007-11-01.mtx.sbeok.set1t06.flac
    10:53.31      115262156 B   ---   --   ---xx  plf2007-11-01.mtx.sbeok.set1t07.flac
     1:00.13       10614620 B   ---   --   ---xx  plf2007-11-01.mtx.sbeok.set2t01.flac
     8:11.55       86741804 B   ---   --   ---xx  plf2007-11-01.mtx.sbeok.set2t02.flac
     4:50.05       51167804 B   ---   --   ---xx  plf2007-11-01.mtx.sbeok.set2t03.flac
    11:30.10      121739564 B   ---   --   ---xx  plf2007-11-01.mtx.sbeok.set2t04.flac
     8:37.43       91299980 B   ---   --   ---xx  plf2007-11-01.mtx.sbeok.set2t05.flac
     5:34.22       58969388 B   ---   --   ---xx  plf2007-11-01.mtx.sbeok.set2t06.flac
    16:25.47      173864588 B   ---   --   ---xx  plf2007-11-01.mtx.sbeok.set2t07.flac
    15:39.32      165714908 B   ---   --   ---xx  plf2007-11-01.mtx.sbeok.set2t08.flac
     8:01.56       84980156 B   ---   --   ---xx  plf2007-11-01.mtx.sbeok.set2t09.flac
     9:42.40      102758924 B   ---   --   ---xx  plf2007-11-01.mtx.sbeok.set2t10.flac
    12:08.12      128447468 B   ---   --   ---xx  plf2007-11-01.mtx.sbeok.set2t11.flac
     2:17.28       24232700 B   ---   --   ---xx  plf2007-11-01.mtx.sbeok.set2t12.flac
     5:03.19       53493932 B   ---   --   ---xx  plf2007-11-01.mtx.sbeok.set2t13.flac
   164:45.07     1743731344 B                            0.5577  (20 files)

Show Checksums
ffp
plf2007-11-01.mtx.sbeok.set1t01.flac:4843bcf33704ed460551f5d022eb9bb0
plf2007-11-01.mtx.sbeok.set1t02.flac:33c11118f795ee504acdbc35829fc53e
plf2007-11-01.mtx.sbeok.set1t03.flac:1c04333fd0684fcef914d9dd41054fbf
plf2007-11-01.mtx.sbeok.set1t04.flac:6ee36ab14e1c8269c77e4992b708387e
plf2007-11-01.mtx.sbeok.set1t05.flac:9a1bff00d695f0ee07ff631bc2dc46ca
plf2007-11-01.mtx.sbeok.set1t06.flac:e05f503541e475c7ee5f9d476815e6b2
plf2007-11-01.mtx.sbeok.set1t07.flac:a34e1b98f3ad0cd6cebaa3518103ad5f
plf2007-11-01.mtx.sbeok.set2t01.flac:a60b651107ace51fbab4dd977a59b4cd
plf2007-11-01.mtx.sbeok.set2t02.flac:b2f3143bb4c6f3a15e65317f26087d2e
plf2007-11-01.mtx.sbeok.set2t03.flac:59f3cb787344d59ae63f36c3fc9c96d5
plf2007-11-01.mtx.sbeok.set2t04.flac:7a679a7846641e5e1c91cab7b0388dba
plf2007-11-01.mtx.sbeok.set2t05.flac:5bb1742a686725584ebab9795733e9a4
plf2007-11-01.mtx.sbeok.set2t06.flac:bc073aa926064fa2f33d10e16235df9e
plf2007-11-01.mtx.sbeok.set2t07.flac:7abe1a13e48b9458b4f0ffa1fd84445f
plf2007-11-01.mtx.sbeok.set2t08.flac:dcb7a1eda034712e3ed56628c4c54fb4
plf2007-11-01.mtx.sbeok.set2t09.flac:aa4d73118d0f11ce4174fd7ae9f5a90d
plf2007-11-01.mtx.sbeok.set2t10.flac:be42e41bbfc265f88cd3c07ac6344f93
plf2007-11-01.mtx.sbeok.set2t11.flac:f48902c3f100d55bff7009f1ba0e8a66
plf2007-11-01.mtx.sbeok.set2t12.flac:5ad1867de670be46bc630176c020e91a
plf2007-11-01.mtx.sbeok.set2t13.flac:77bae70a0bc2be5b0b575a44ab2dd8e1
flac-md5
81e2ed91429cc923c5ad0c34a4062ef7 *plf2007-11-01.mtx.sbeok.set1t01.flac
e8281c229de5a3d347e0c9a00d983bb7 *plf2007-11-01.mtx.sbeok.set1t02.flac
3b035379a5e103d7ace36cbe546926c4 *plf2007-11-01.mtx.sbeok.set1t03.flac
3c98bb2eda0e7b77da8e5ab8d7e3bff9 *plf2007-11-01.mtx.sbeok.set1t04.flac
4f29fe0ca70df6dc445a0210b1dcdcef *plf2007-11-01.mtx.sbeok.set1t05.flac
6af4586b5717cf940e16e8b3366ef3ed *plf2007-11-01.mtx.sbeok.set1t06.flac
81f98f6fea20eebbc906f314df325eec *plf2007-11-01.mtx.sbeok.set1t07.flac
69a9dc363116fb1023b886c234a33bbf *plf2007-11-01.mtx.sbeok.set2t01.flac
c6b7166abc29d07b5720814a6ec1db3d *plf2007-11-01.mtx.sbeok.set2t02.flac
c8e6e3863b50d59e64ba4af09ed23ec6 *plf2007-11-01.mtx.sbeok.set2t03.flac
d88f7b47c1ce4362053a3837717ecf03 *plf2007-11-01.mtx.sbeok.set2t04.flac
1f43584c88903511b1868d67666b4992 *plf2007-11-01.mtx.sbeok.set2t05.flac
57b3fa4ab95443ff1fe13a73b696a5c3 *plf2007-11-01.mtx.sbeok.set2t06.flac
0ff9ae667c862881e66ba94d80b2ab26 *plf2007-11-01.mtx.sbeok.set2t07.flac
0e93970847fe1ac41d384033524e9a13 *plf2007-11-01.mtx.sbeok.set2t08.flac
e49092cba40a82b5586347eca552f591 *plf2007-11-01.mtx.sbeok.set2t09.flac
4c00fcea2d0e01a4ebfb9986ddf3a46f *plf2007-11-01.mtx.sbeok.set2t10.flac
668a80305a31da766485ef9619d29894 *plf2007-11-01.mtx.sbeok.set2t11.flac
37325df2d9cdbc48a74049bc69f696a5 *plf2007-11-01.mtx.sbeok.set2t12.flac
780c6cb41688a8307e0f66667477f268 *plf2007-11-01.mtx.sbeok.set2t13.flac

Comments
Add Comment
Other Sources (comments)
nak 100 mics > sony sbm1 >... (0) Source: B+K... (0) FREE SOUNDBOARD (0)
Date User Comment