Browse Collections Artists Sources   Search Dates

Add Show    List Management    Help


Grateful Dead 03/28/93
Knickerbocker Arena, Albany, NY
Comments Add Comment    Source Collectors    Add to Collection    Add to Want List    History
Source # 95961 Other Sources
Entered by Matt Vernon
Checksums ffp , flac-md5
Disc Counts 2 / 2
Media Size
Date Circulated
Date Added
11/22/2008
11/22/2008
Source Summary flac16/48; AUD: AKG C460B/CK8 shotguns > unknown lead dat decks > Coax SPDIF > Casio DA-7 > Maxell DM-120's, front of OTS. Transfer: MAD > Sony TCD-D10P > Coax SPDIF > Audiophile 2496 > Wavelab > CD-Wave > TLH > FLAC 1648. Taped/transfer Andrew F. 
  Archive
Source Information - Download Text | Download Zip
GRATEFUL DEAD
Knickerbocker Arena
Albany NY
03-28-1993

16bit/48kHz file-set

s1t01 crowd & tuning
s1t02 Mississippi Half Step
s1t03 Walkin' Blues
s1t04 So Many Roads
s1t05 When I Paint My Masterpiece
s1t06 High Time
s1t07 Eternity
s1t08 Deal

s2t01 Scarlet Begonias >
s2t02 Fire on the Mountain
s2t03 Samson & Delilah
s2t04 Ship of Fools
s2t05 Wave to the Wind >
s2t06 Truckin' >
s2t07 Drums >
s2t08 Space >
s2t09 Way to Go Home
s2t10 Attics of My Life
s2t11 Turn on Your Lovelight
s2t12 Encore: Knockin' on Heaven's Door

AUD: AKG C460B/CK8 shotguns > unknown lead dat decks > Coax
SPDIF > Casio DA-7 > Maxell DM-120's, front of OTS.

Transfer: MAD > Sony TCD-D10P > Coax SPDIF > Audiophile 2496 >
Wavelab > CD-Wave > TLH > FLAC 1648. Taped/transfer Andrew F.

Notes:
- Sub-second digi-zap at Half Step 0:59.107.
- Patch from ShnID-5702, So Many Roads 4:30.898 > 5:24.822.

    length     expanded size    cdr  WAVE problems  fmt   ratio  filename
     0:58.206      11175640 B   cxx   --   ---xx   flac  0.4742  gd1993-03-28s1t01.flac
     8:47.413     101263400 B   cxx   --   ---xx   flac  0.5526  gd1993-03-28s1t02.flac
     6:03.200      69734444 B   cxx   --   ---xx   flac  0.5679  gd1993-03-28s1t03.flac
     7:05.070      81613484 B   cxx   --   ---xx   flac  0.5629  gd1993-03-28s1t04.flac
     5:36.120      64535084 B   cxx   --   ---xx   flac  0.5731  gd1993-03-28s1t05.flac
     7:09.482      82460632 B   cxx   --   ---xx   flac  0.4800  gd1993-03-28s1t06.flac
     9:44.107     112148524 B   cxx   --   ---xx   flac  0.5377  gd1993-03-28s1t07.flac
     8:30.138      97946564 B   cxx   --   ---xx   flac  0.5890  gd1993-03-28s1t08.flac
    10:03.063     115788108 B   cxx   --   ---xx   flac  0.5623  gd1993-03-28s2t01.flac
    12:51.160     148062764 B   cxx   --   ---xx   flac  0.5492  gd1993-03-28s2t02.flac
     7:19.507      84385324 B   cxx   --   ---xx   flac  0.5686  gd1993-03-28s2t03.flac
     7:47.107      89684524 B   cxx   --   ---xx   flac  0.5268  gd1993-03-28s2t04.flac
     7:33.867      87142444 B   cxx   --   ---xx   flac  0.5423  gd1993-03-28s2t05.flac
     8:18.800      95769644 B   cxx   --   ---xx   flac  0.5594  gd1993-03-28s2t06.flac
     9:55.773     114388524 B   cxx   --   ---xx   flac  0.4454  gd1993-03-28s2t07.flac
    12:39.387     145802284 B   cxx   --   ---xx   flac  0.4098  gd1993-03-28s2t08.flac
     6:35.147      75868204 B   cxx   --   ---xx   flac  0.5438  gd1993-03-28s2t09.flac
     5:07.333      59008044 B   cxx   --   ---xx   flac  0.4771  gd1993-03-28s2t10.flac
     6:37.467      76313644 B   cxx   --   ---xx   flac  0.5288  gd1993-03-28s2t11.flac
     8:25.601      97075360 B   cxx   --   ---xx   flac  0.4837  gd1993-03-28s2t12.flac
   157:07.947    1810166640 B                            0.5255  (20 files)

No errors occured.
Show Checksums
ffp
gd1993-03-28s1t01.flac:00b7a8fde584e47bc707aea8303705f4
gd1993-03-28s1t02.flac:736c2b9cd514666002db9ba34120630c
gd1993-03-28s1t03.flac:e66f0672fc863777823f762a9b8f8277
gd1993-03-28s1t04.flac:08b955286c519ecee317c7e23aaf94fb
gd1993-03-28s1t05.flac:5d80918cf0eb49836c2a25f8f84409cd
gd1993-03-28s1t06.flac:de8fba93cdb00772e880c42f3d926d8b
gd1993-03-28s1t07.flac:b3e13ab479f298eca61c539760407c51
gd1993-03-28s1t08.flac:a6241c96e3260da39895c1a5202848cd
gd1993-03-28s2t01.flac:54e458edb56519bf73e34407fcdf9ccb
gd1993-03-28s2t02.flac:5b084750327b600a6ccfa735402ae7f5
gd1993-03-28s2t03.flac:8596a2323e147c1dbbf71d7d13c6dec6
gd1993-03-28s2t04.flac:6252e11f014eb28bca0ec9d47b409bc4
gd1993-03-28s2t05.flac:072b5f7d35200641f790704187b5e9a7
gd1993-03-28s2t06.flac:b040c46d960acd10a2d6bed41643b62b
gd1993-03-28s2t07.flac:3f6799f895860c9a2ae0e9d162ce19c5
gd1993-03-28s2t08.flac:34e0caac13cec814c3590e3b7d8d206f
gd1993-03-28s2t09.flac:8560c99f50f4e6888530303b28a76595
gd1993-03-28s2t10.flac:1110cd4fb846a3a8efaa897dcee49af7
gd1993-03-28s2t11.flac:279222334ebb0c60d699c5df2deda8f5
gd1993-03-28s2t12.flac:2e149bf58708f97ba00efcbef27fc4a5
flac-md5
f9c830f84a67d33089fe47355588f793 *gd1993-03-28s1t01.flac
eec15bd7c05be22b08ed6dc32dc86fd2 *gd1993-03-28s1t02.flac
97327d663717d624192f1c2349ee38bb *gd1993-03-28s1t03.flac
43810c9a920b09ba7073443953ff9d36 *gd1993-03-28s1t04.flac
ee03dc4432d383af1230241cf0140709 *gd1993-03-28s1t05.flac
cfb1dcdd978387178ca4971d554ec7de *gd1993-03-28s1t06.flac
f7adadb80cd7da75527baa96a452f96d *gd1993-03-28s1t07.flac
36793ab07bf32c649702027f6afb1fa1 *gd1993-03-28s1t08.flac
32032add7143b7102a4bb6165b340200 *gd1993-03-28s2t01.flac
10526876a1697a6a6cdbea2a0ec5f02e *gd1993-03-28s2t02.flac
a78e6997326091eb82287c19195a95e4 *gd1993-03-28s2t03.flac
c1af8ee2cb321a88923370318f1b66db *gd1993-03-28s2t04.flac
857040cc62afc1cb774a5739ff536a7b *gd1993-03-28s2t05.flac
b86d1935ebc60d33b68f1ce48c8833ab *gd1993-03-28s2t06.flac
9b517350d56a5b4a05ee1ea83e2af51e *gd1993-03-28s2t07.flac
a65d6415c313a175b4ca8cc4800deeff *gd1993-03-28s2t08.flac
1935dd4aa7439cbbeb8c0ce407cc72ca *gd1993-03-28s2t09.flac
49d8fb67e455791b704e108faa2ddd9b *gd1993-03-28s2t10.flac
a978db9eb86407c8061c62339f1a057b *gd1993-03-28s2t11.flac
544af4d383694213606d77ca9309977b *gd1993-03-28s2t12.flac

Comments
Add Comment
Other Sources (comments)
FOB section 5, Row N, Seat... (3) SBD>DAT>C>DAT>CDR encoded... (3) flac16; AUD: AKG... (0) flac16; Recording... (0) flac16;... (0) flac16; Source: Sony... (0) flac16; Source:... (0) flac24; Source:... (0) flac24; Master... (0) flac16; Master... (0) flac16/48kHz; Source... (0) flac16/48kHz; aud... (0)
Date User Comment