Browse Collections Artists Sources   Search Dates

Add Show    List Management    Help


Ratdog 11/12/08
Prudential Hall, Newark, NJ
Comments Add Comment    Source Collectors    Add to Collection    Add to Want List    History
Source # 96020 Other Sources
Entered by ziko
Checksums ffp , md5
Disc Counts 2 / 2
Media Size
Date Circulated
Date Added

11/24/2008
Source Summary flac16;Microtech Gefell M210's > Oade M248 > Sony SBM-1 > Sony TC-D8; center rchestra 25th row. MAD > Tascam DA20 > Tascam CDRW-5000 > CDR > EAC > Soundforge > CD-Wave > TLH > FLAC 1644. Taped by Jon Pasternak. EAC > FLAC by Andrew F.  
  Archive
Source Information - Download Text | Download Zip
RATDOG
Prudential Hall
Newark NJ
11-12-2008

Set One (81:34)

01 Jam
02 Truckin'
03 Brown Eyed Women
04 Tomorrow Never Knows
05 Jus' Like Mama Said
06 Cold Rain & Snow
07 Bury Me Standing
08 Silvio / Tequila / Silvio
09 Greatest Story Ever Told
10 Scarlet Begonias

Set Two (78:54)

01 Me & Bobby McGee
02 Victim or the Crime
03 She Says
04 Liberty
05 Franklin's Tower
06 Stuff
07 Knockin' on Heaven's Door
08 Sugar Magnolia
09 Encore: Brokedown Palace

AUD: Microtech Gefell M210's > Oade M248 > Sony SBM-1 >
Sony TC-D8, center orchestra 25th row. MAD > Tascam DA20 >
Tascam CDRW-5000 > CDR > EAC > Soundforge > CD-Wave > TLH >
FLAC 1644. Taped by Jon Pasternak. EAC > FLAC by Andrew F.

Notes:
- Two second dropout at Truckin' 8:15, mended together.
- One second dropout at Mama Said 4:56, mended together.
- CDR Burn options: Overburn Set One to 81:34, or burn
  onto two discs, split between CRS and Bury Me Standing.

51392314f370b3b53b4492af1ca189d5 *rd2008-11-12s1t01.flac
442c99fa838cd183a15d36c8d40afcb0 *rd2008-11-12s1t02.flac
1976a149df0df1a3228685689616a27a *rd2008-11-12s1t03.flac
fa53e261a2aa4e0ee927357bf8716ec4 *rd2008-11-12s1t04.flac
d57c7ba77c45624e57a0951b2d13c620 *rd2008-11-12s1t05.flac
ba6485d90c48a80c23a07f059b9613bd *rd2008-11-12s1t06.flac
62aae851271f523b2527cb1b6a53d812 *rd2008-11-12s1t07.flac
9cb23955ef5bf93c25c0d7e299622619 *rd2008-11-12s1t08.flac
97909fb9456df471d09c0cca0642e8a7 *rd2008-11-12s1t09.flac
30bff67f5d509d4f1b6681dfef393853 *rd2008-11-12s1t10.flac
be0a87540f87a8c39d42be6ce54c2917 *rd2008-11-12s2t01.flac
41d4c1eec0f72c712efe6459380f5237 *rd2008-11-12s2t02.flac
3426d95c5882b95be3e3d807735054bb *rd2008-11-12s2t03.flac
14913115dcfff4ff21a64661eb7beb50 *rd2008-11-12s2t04.flac
986f33cf888e53e2b08e7bdcac272cf4 *rd2008-11-12s2t05.flac
6f65fe60c7be6b0386ed92d003309755 *rd2008-11-12s2t06.flac
44177192115b0ed36695cff1fe65c72b *rd2008-11-12s2t07.flac
cb49a6351dcc3a4a2f7e69032233bc07 *rd2008-11-12s2t08.flac
cebe52ecbc3b177dd0efeca7e2d4727e *rd2008-11-12s2t09.flac

rd2008-11-12s1t01.flac:58e3b9753c55a333417d15ddaa7e5555
rd2008-11-12s1t02.flac:96e48898053906afe0712ed1509f415a
rd2008-11-12s1t03.flac:bdc9389ed260512062adea21f8a4edf8
rd2008-11-12s1t04.flac:202a4ed91c70e9c01d61bade7f549a43
rd2008-11-12s1t05.flac:7238d840568061d8eaf3099951d1b060
rd2008-11-12s1t06.flac:da133e67b138ce8a6c114dcf969a0864
rd2008-11-12s1t07.flac:ea6cf46f39d40f76f02e927dc3cbdf98
rd2008-11-12s1t08.flac:9321df1abb52656964dc86a22e49f3fc
rd2008-11-12s1t09.flac:61c6dd49bcaf0aec5c47d844c9e9d9b2
rd2008-11-12s1t10.flac:a2934fae7cc17ec80162fa964bbde7a2
rd2008-11-12s2t01.flac:468ccd8bcb206b752d0ed8ea4c7f9966
rd2008-11-12s2t02.flac:3c94f0358bf840a96ff256d702fc6ffe
rd2008-11-12s2t03.flac:a0e03278358623f1212484ae6ba20692
rd2008-11-12s2t04.flac:fb243fa106a08ffa39ff2b0e15e7e7ac
rd2008-11-12s2t05.flac:57b0e0dd987ad5c1bcc3ccd18ecc5970
rd2008-11-12s2t06.flac:555c5b340cf51791cd944f6cd0793cd5
rd2008-11-12s2t07.flac:400e777075da0ff3eaec742147d55b46
rd2008-11-12s2t08.flac:43c8c0f9e38f78562200eb885427e91d
rd2008-11-12s2t09.flac:cae92ccddedce85b1534c6637460da2c

    length     expanded size    cdr  WAVE problems  fmt   ratio  filename
     4:07.67       43728428 B   ---   --   ---xx   flac  0.5321  rd2008-11-12s1t01.flac
    13:53.50      147058844 B   ---   --   ---xx   flac  0.5796  rd2008-11-12s1t02.flac
     5:39.30       59870204 B   ---   --   ---xx   flac  0.5744  rd2008-11-12s1t03.flac
     8:04.54       85504652 B   ---   --   ---xx   flac  0.5711  rd2008-11-12s1t04.flac
     9:27.26      100079996 B   ---   --   ---xx   flac  0.5398  rd2008-11-12s1t05.flac
     6:45.46       71550236 B   ---   --   ---xx   flac  0.5751  rd2008-11-12s1t06.flac
    10:47.52      114253148 B   ---   --   ---xx   flac  0.5688  rd2008-11-12s1t07.flac
     6:53.08       72872060 B   ---   --   ---xx   flac  0.5930  rd2008-11-12s1t08.flac
     6:13.47       65907788 B   ---   --   ---xx   flac  0.6086  rd2008-11-12s1t09.flac
     9:40.72      102481388 B   ---   --   ---xx   flac  0.5921  rd2008-11-12s1t10.flac
     6:41.01       70738796 B   ---   --   ---xx   flac  0.5534  rd2008-11-12s2t01.flac
     9:02.71       95775836 B   ---   --   ---xx   flac  0.5690  rd2008-11-12s2t02.flac
     9:36.41      101702876 B   ---   --   ---xx   flac  0.5801  rd2008-11-12s2t03.flac
     7:40.08       81162860 B   ---   --   ---xx   flac  0.5996  rd2008-11-12s2t04.flac
    13:22.31      141545756 B   ---   --   ---xx   flac  0.5784  rd2008-11-12s2t05.flac
    10:52.01      115015196 B   ---   --   ---xx   flac  0.5430  rd2008-11-12s2t06.flac
     5:08.09       54352412 B   ---   --   ---xx   flac  0.4984  rd2008-11-12s2t07.flac
    10:18.46      109123436 B   ---   --   ---xx   flac  0.6084  rd2008-11-12s2t08.flac
     6:13.10       65820764 B   ---   --   ---xx   flac  0.5016  rd2008-11-12s2t09.flac
   160:28.70     1698544676 B                            0.5699  (19 files)

No errors occured.
Show Checksums
ffp
rd2008-11-12s1t01.flac:58e3b9753c55a333417d15ddaa7e5555
rd2008-11-12s1t02.flac:96e48898053906afe0712ed1509f415a
rd2008-11-12s1t03.flac:bdc9389ed260512062adea21f8a4edf8
rd2008-11-12s1t04.flac:202a4ed91c70e9c01d61bade7f549a43
rd2008-11-12s1t05.flac:7238d840568061d8eaf3099951d1b060
rd2008-11-12s1t06.flac:da133e67b138ce8a6c114dcf969a0864
rd2008-11-12s1t07.flac:ea6cf46f39d40f76f02e927dc3cbdf98
rd2008-11-12s1t08.flac:9321df1abb52656964dc86a22e49f3fc
rd2008-11-12s1t09.flac:61c6dd49bcaf0aec5c47d844c9e9d9b2
rd2008-11-12s1t10.flac:a2934fae7cc17ec80162fa964bbde7a2
rd2008-11-12s2t01.flac:468ccd8bcb206b752d0ed8ea4c7f9966
rd2008-11-12s2t02.flac:3c94f0358bf840a96ff256d702fc6ffe
rd2008-11-12s2t03.flac:a0e03278358623f1212484ae6ba20692
rd2008-11-12s2t04.flac:fb243fa106a08ffa39ff2b0e15e7e7ac
rd2008-11-12s2t05.flac:57b0e0dd987ad5c1bcc3ccd18ecc5970
rd2008-11-12s2t06.flac:555c5b340cf51791cd944f6cd0793cd5
rd2008-11-12s2t07.flac:400e777075da0ff3eaec742147d55b46
rd2008-11-12s2t08.flac:43c8c0f9e38f78562200eb885427e91d
rd2008-11-12s2t09.flac:cae92ccddedce85b1534c6637460da2c
md5
51392314f370b3b53b4492af1ca189d5 *rd2008-11-12s1t01.flac
442c99fa838cd183a15d36c8d40afcb0 *rd2008-11-12s1t02.flac
1976a149df0df1a3228685689616a27a *rd2008-11-12s1t03.flac
fa53e261a2aa4e0ee927357bf8716ec4 *rd2008-11-12s1t04.flac
d57c7ba77c45624e57a0951b2d13c620 *rd2008-11-12s1t05.flac
ba6485d90c48a80c23a07f059b9613bd *rd2008-11-12s1t06.flac
62aae851271f523b2527cb1b6a53d812 *rd2008-11-12s1t07.flac
9cb23955ef5bf93c25c0d7e299622619 *rd2008-11-12s1t08.flac
97909fb9456df471d09c0cca0642e8a7 *rd2008-11-12s1t09.flac
30bff67f5d509d4f1b6681dfef393853 *rd2008-11-12s1t10.flac
be0a87540f87a8c39d42be6ce54c2917 *rd2008-11-12s2t01.flac
41d4c1eec0f72c712efe6459380f5237 *rd2008-11-12s2t02.flac
3426d95c5882b95be3e3d807735054bb *rd2008-11-12s2t03.flac
14913115dcfff4ff21a64661eb7beb50 *rd2008-11-12s2t04.flac
986f33cf888e53e2b08e7bdcac272cf4 *rd2008-11-12s2t05.flac
6f65fe60c7be6b0386ed92d003309755 *rd2008-11-12s2t06.flac
44177192115b0ed36695cff1fe65c72b *rd2008-11-12s2t07.flac
cb49a6351dcc3a4a2f7e69032233bc07 *rd2008-11-12s2t08.flac
cebe52ecbc3b177dd0efeca7e2d4727e *rd2008-11-12s2t09.flac

Comments
Add Comment
Other Sources (comments)
flac16;nak 100 mics... (0)
Date User Comment