Browse Collections Artists Sources   Search Dates

Add Show    List Management    Help


Drive-By Truckers 03/28/08
The National, Richmond, VA
Comments Add Comment    Source Collectors    Add to Collection    Add to Want List    History
Source # 96052 Other Sources
Entered by
Checksums ffp
Disc Counts 0 / 0
Media Size
Date Circulated
Date Added
04/01/08
11/25/2008
Source Summary Source: Soundfield ST350 (DFC Behind SBD|B Format)-> SD744T (24|48)-> Nuendo 3 (Stereo Decode Midway Between Cardioid/Hypercardioid|XY|90)-> CD Wave-> Wavelab (Normalize|16/44)-> FLAC Frontend (Level 6)-> FLAC
Taper: Chris Imburgia  
Source Information - Download Text | Download Zip
Drive-By Truckers
March 28, 2008
The National
Richmond, VA

Source: Soundfield ST350 (DFC Behind SBD|B Format)-> SD744T (24|48)-> Nuendo 3 (Stereo Decode Midway Between Cardioid/Hypercardioid|XY|90)-> CD Wave-> Wavelab (Normalize|16/44)-> FLAC Frontend (Level 6)-> FLAC
Taper: Chris Imburgia

01. The Righteous Path
02. Shut Up And Get On The Plane
03. The Man I Shot
04. One Of These Days
05. Two Daughters And A Beautiful Wife
06. Daddy Needs A Drink
07. Three Dimes Down
08. Putting People On The Moon
09. Check Out Time In Vegas
10. You And Your Crystal Meth
11. Goode's Field Road
12. I'm Sorry Huston
13. Self-Destructive Zones
14. The Company I Keep
15. Hell No I Ain't Happy
16. Gravity's Gone
17. Homefield Advantage
18. Lookout Mountain
19. E: I'm Your Puppet
20. E: A Ghost To Most
21. E: Steve McQueen
22. E: Marry Me
23. E: 18 Wheels Of Love
24. E: Zip City
25. E: Let There Be Rock
26. E: People Who Died

Sector Boundary Verification
--------------------------------------
length     expanded size   cdr  WAVE problems filename
     4:22.23       46270940    ---   --   ---xx   dbt2008-03-28t01.flac
     4:20.57       45998108    ---   --   ---xx   dbt2008-03-28t02.flac
     5:29.71       58202636    ---   --   ---xx   dbt2008-03-28t03.flac
     6:07.19       64783532    ---   --   ---xx   dbt2008-03-28t04.flac
     3:44.18       39555980    ---   --   ---xx   dbt2008-03-28t05.flac
     4:34.17       48373628    ---   --   ---xx   dbt2008-03-28t06.flac
     2:59.66       31730876    ---   --   ---xx   dbt2008-03-28t07.flac
     7:04.32       74868908    ---   --   ---xx   dbt2008-03-28t08.flac
     2:40.40       28318124    ---   --   ---xx   dbt2008-03-28t09.flac
     5:32.37       58651868    ---   --   ---xx   dbt2008-03-28t10.flac
     6:04.29       64277852    ---   --   ---xx   dbt2008-03-28t11.flac
     3:57.49       41922092    ---   --   ---xx   dbt2008-03-28t12.flac
     3:54.54       41404652    ---   --   ---xx   dbt2008-03-28t13.flac
     7:57.26       84203996    ---   --   ---xx   dbt2008-03-28t14.flac
     6:48.46       72079436    ---   --   ---xx   dbt2008-03-28t15.flac
     3:37.44       38382332    ---   --   ---xx   dbt2008-03-28t16.flac
     4:41.34       49648412    ---   --   ---xx   dbt2008-03-28t17.flac
     5:05.26       53863196    ---   --   ---xx   dbt2008-03-28t18.flac
     7:38.36       80875916    ---   --   ---xx   dbt2008-03-28t19.flac
     4:51.47       51442988    ---   --   ---xx   dbt2008-03-28t20.flac
     6:54.58       73166060    ---   --   ---xx   dbt2008-03-28t21.flac
     5:53.12       62297468    ---   --   ---xx   dbt2008-03-28t22.flac
    12:57.08      137081660    ---   --   ---xx   dbt2008-03-28t23.flac
     5:24.30       57224204    ---   --   ---xx   dbt2008-03-28t24.flac
     7:23.63       78293420    ---   --   ---xx   dbt2008-03-28t25.flac
     6:19.71       67022636    ---   --   ---xx   dbt2008-03-28t26.flac
   146:26.38     1549940920 B                     (totals for 26 files, 0.5824 overall compression ratio)
Show Checksums
ffp
dbt2008-03-28t26.flac:6f2879662f3526748bb5c60dd66934da
dbt2008-03-28t01.flac:e663dede24fedea8dc6e0e0b5867c576
dbt2008-03-28t02.flac:92053e300f35ae166fede1264de178c3
dbt2008-03-28t03.flac:1e09bb8dd394509b71c3ba14edacf2ff
dbt2008-03-28t04.flac:a9b3d1f9ba28bd97aa0660ac94191c05
dbt2008-03-28t05.flac:25738feb7a262941c149ddcb3dbea888
dbt2008-03-28t06.flac:a48b9baabaa68b5755b7f6fc6813a794
dbt2008-03-28t07.flac:91380ad5b01aaf0add68189b667c3766
dbt2008-03-28t08.flac:fec25a495656bbe74883e053c9d116fd
dbt2008-03-28t09.flac:0280161ce31c9f3bcd3be55ef0577c11
dbt2008-03-28t10.flac:8ba19785abce59ffad8bd08bba3f434f
dbt2008-03-28t11.flac:bd12b22475c6ac0d9d1f18f86008498e
dbt2008-03-28t12.flac:3f46f73f102ef27c3a261718dc42aae5
dbt2008-03-28t13.flac:6c8f6c5d6f1021d8ab0220a77edff3d1
dbt2008-03-28t14.flac:d3aab2912eb196759b3fdfa2b45d7502
dbt2008-03-28t15.flac:36e969fa129e75ab904e08dd37308c1b
dbt2008-03-28t16.flac:54cceebf8eb5d85b5ca7310a718d5b76
dbt2008-03-28t17.flac:92c5568aff00fc53df9abda168dfc03f
dbt2008-03-28t18.flac:f9459ba1f14fd23ed0b21341bc7b1d9f
dbt2008-03-28t19.flac:c4bc29a44e2a6feff85843d33eec3917
dbt2008-03-28t20.flac:2d6e6148e6252005e9460c248856b885
dbt2008-03-28t21.flac:63841fc077caae9d57e3337613df0d52
dbt2008-03-28t22.flac:c4e6aba627b4b2e26d1551d9cd653f03
dbt2008-03-28t23.flac:5e0dafdaa81e5a865fb7af5cecdc3c06
dbt2008-03-28t24.flac:b0efeeba087362a67a38a5992c80a223
dbt2008-03-28t25.flac:c2883bfaaf436166b00e21fb2ab61779


Comments
Add Comment
Other Sources (comments)
Source: Busman... (0) Soundfield ST350 > 744T... (0) [24 Bit] DPA 4011s > SD722... (0)
Date User Comment