Browse Collections Artists Sources   Search Dates

Add Show    List Management    Help


Grateful Dead 09/30/80
Warfield Theater, San Francisco, CA
Comments Add Comment    Source Collectors    Add to Collection    Add to Want List    History
Source # 96066 Other Sources
Entered by dr.unclear
Checksums ffp , flac-md5
Disc Counts 1 / 1
Media Size
Date Circulated
Date Added
11/25/2008
11/25/2008
Source Summary flac16; Acoustic Set Recording Info:SBD -> 24 Track Master Reel -> Cassette -> Cassette; Transfer Info:Cassette (Nakamichi DR-1) -> Sound Devices 744T (24bit/96k) -> Samplitude Professional v10.1 -> FLAC/16; All Transfers and Mastering By Charlie Miller 
  Archive
Source Information - Download Text | Download Zip
Grateful Dead - September 30, 1980
Warfield Theatre - San Francisco, CA

Recording Info:
SBD -> 24 Track Master Reel -> Cassette -> Cassette

Transfer Info:
Cassette (Nakamichi DR-1) -> Sound Devices 744T (24bit/96k) ->
Samplitude Professional v10.1 -> FLAC/16
(1 Disc Audio / 1 Disc FLAC)

All Transfers and Mastering By Charlie Miller
[email protected]
November 24, 2008

Patch Info:
Nakamichi 700 -> Cassette Master -> Cassette -> Dat -> CD (shnid=12882) supplies:
Ripple (4:04 - end of track)

Notes:
-- Thanks to Paul Scotton and Joani Walker for the tape

Acoustic Set:
d1t01 - On The Road Again
d1t02 - Jack-A-Roe
d1t03 - Monkey And The Engineer
d1t04 - Bird Song
d1t05 - Dark Hollow
d1t06 - Rosalie McFall
d1t07 - Heaven Help The Fool
d1t08 - China Doll
d1t09 - Oh Babe It Ain't No Lie ->
d1t10 - Ripple


SHNTOOL OUTPUT:
    length     expanded size   cdr  WAVE problems filename
     3:52.24       40981292    ---   --   -----   gd80-09-30d1t01.wav
     4:26.25       46981244    ---   --   -----   gd80-09-30d1t02.wav
     2:25.71       25745036    ---   --   -----   gd80-09-30d1t03.wav
     8:00.24       84728492    ---   --   -----   gd80-09-30d1t04.wav
     3:46.10       39889964    ---   --   -----   gd80-09-30d1t05.wav
     2:42.45       28682684    ---   --   -----   gd80-09-30d1t06.wav
     5:56.49       62913692    ---   --   -----   gd80-09-30d1t07.wav
     4:51.62       51478268    ---   --   -----   gd80-09-30d1t08.wav
     6:40.24       70616492    ---   --   -----   gd80-09-30d1t09.wav
     4:45.61       50417516    ---   --   -----   gd80-09-30d1t10.wav
    47:28.20      502434680 B                     (totals for 10 files)
Show Checksums
ffp
gd80-09-30d1t01.flac:29d31b6349201adeb87c5145a903410f
gd80-09-30d1t02.flac:f6921408837cfebaa080753dc54f9d68
gd80-09-30d1t03.flac:24d9e93a55cc14be4d61e9d4ffcc1422
gd80-09-30d1t04.flac:f3f503105f341a056c3748a42a40a250
gd80-09-30d1t05.flac:fba620d4548e33ed9344c559602683db
gd80-09-30d1t06.flac:f7ad8c5fae4aec8afdfd8e3869c6bb5b
gd80-09-30d1t07.flac:42561945d008de58effc8bf177ceb7d7
gd80-09-30d1t08.flac:a9f9223599b69af3446bec88f9edb384
gd80-09-30d1t09.flac:31b035c229387cf99d587c24defd5e73
gd80-09-30d1t10.flac:424fdf3d7966f82186813f44172b883a
flac-md5
9b86b75a90fba624bfd7eb767aae083f *gd80-09-30d1t01.flac
a3e5a421a3ca8d51b081c200cb486f86 *gd80-09-30d1t02.flac
dc1fd4937185de7b1797c6ea0db40f5c *gd80-09-30d1t03.flac
550874ef94f03f43b4f840b25be1f772 *gd80-09-30d1t04.flac
9171058bd060ae59050e29dba2b59476 *gd80-09-30d1t05.flac
4177ab904d8e5b094c9688ede189daa5 *gd80-09-30d1t06.flac
95470210a67185f487241c88294aa19d *gd80-09-30d1t07.flac
0cecc96bfa09f5401508590b625fe177 *gd80-09-30d1t08.flac
54e25b101003ac47cd399907b1d8efa2 *gd80-09-30d1t09.flac
1582168e7dd2c3d781da8d6a74675f27 *gd80-09-30d1t10.flac

Comments
Add Comment
Other Sources (comments)
Source: Recording... (0) flac16; Recording by... (0) flac16; Recording... (0) flac16; 2 source... (0)
Date User Comment