Browse Collections Artists Sources   Search Dates

Add Show    List Management    Help


Grateful Dead 10/02/80
Warfield Theater, San Francisco, CA
Comments Add Comment    Source Collectors    Add to Collection    Add to Want List    History
Source # 96067 Other Sources
Entered by dr.unclear
Checksums flac-md5 , ffp
Disc Counts 1 / 1
Media Size
Date Circulated
Date Added
11/25/2008
11/25/2008
Source Summary flac16; Acoustic Set Recording Info:SBD -> 24 Track Master Reel -> Cassette -> Cassette; Transfer Info:Cassette (Nakamichi DR-1) -> Sound Devices 744T (24bit/96k) -> Samplitude Professional v10.1 -> FLAC/16; All Transfers and Mastering By Charlie Miller 
  Archive
Source Information - Download Text | Download Zip
Grateful Dead - October 2, 1980
Warfield Theatre - San Francisco, CA

Recording Info:
SBD -> 24 Track Master Reel -> Cassette -> Cassette

Transfer Info:
Cassette (Nakamichi DR-1) -> Sound Devices 744T (24bit/96k) ->
Samplitude Professional v10.1 -> FLAC/16
(1 Disc Audio / 1 Disc FLAC)

All Transfers and Mastering By Charlie Miller
[email protected]
November 24, 2008

Notes:
-- Thanks to Paul Scotton and Joani Walker for the tape

Acoustic Set:
d1t01 - Dark Hollow
d1t02 - Iko Iko
d1t03 - The Race Is On
d1t04 - To Lay Me Down
d1t05 - Cassidy
d1t06 - Jack-A-Roe
d1t07 - On The Road Again
d1t08 - Bird Song ->
d1t09 - Ripple


SHNTOOL OUTPUT:
    length     expanded size   cdr  WAVE problems filename
     3:49.41       40492076    ---   --   -----   gd80-10-02d1t01.wav
     3:50.41       40668476    ---   --   -----   gd80-10-02d1t02.wav
     2:55.62       31015868    ---   --   -----   gd80-10-02d1t03.wav
     9:41.15      102523724    ---   --   -----   gd80-10-02d1t04.wav
     5:16.47       55852988    ---   --   -----   gd80-10-02d1t05.wav
     4:34.24       48390092    ---   --   -----   gd80-10-02d1t06.wav
     3:11.17       33732428    ---   --   -----   gd80-10-02d1t07.wav
     7:24.67       78479228    ---   --   -----   gd80-10-02d1t08.wav
     4:42.50       49862444    ---   --   -----   gd80-10-02d1t09.wav
    45:26.64      481017324 B                     (totals for 9 files)
Show Checksums
flac-md5
826dc3bf8ba9222b7c732a2363256f10 *gd80-10-02d1t01.flac
32fc6347ac3cd32a9a84bc7744f0b44d *gd80-10-02d1t02.flac
f6e1a56458ea9b90d4d84489d37b7587 *gd80-10-02d1t03.flac
8729b5e78a907c84cda02ac0a3686bad *gd80-10-02d1t04.flac
a3ced8b558e2f43bd05d8f2fb37c829a *gd80-10-02d1t05.flac
f65172e5e017bdb6f74082b6109eb72f *gd80-10-02d1t06.flac
e6d9f9c39c80a3172092ee981c395105 *gd80-10-02d1t07.flac
b5c9fc85a2ff91f64bb942e7addf18e1 *gd80-10-02d1t08.flac
82245d9672b13ad7edda321582c00538 *gd80-10-02d1t09.flac
ffp
gd80-10-02d1t01.flac:31204436cfd14c24b297773fbb2059dc
gd80-10-02d1t02.flac:37a311029c01a2b29ee7e4f4d981f1ab
gd80-10-02d1t03.flac:3d79b2a5a9771f0e58140cac768fb17c
gd80-10-02d1t04.flac:d2e280228eab71874c533e39e0eac254
gd80-10-02d1t05.flac:a4c70930205ae2f7367878faf044ad04
gd80-10-02d1t06.flac:4117698c98d4a24022dbb7f73dac35d3
gd80-10-02d1t07.flac:d1c045bf58e066c7761ec701e25b4b46
gd80-10-02d1t08.flac:52fa90064d3346c69e5a494a2d82350d
gd80-10-02d1t09.flac:290d652b8ba5eb7e5b33c66feb62abfa

Comments
Add Comment
Other Sources (comments)
set 3; SBD-> Master... (2) Acoustic set; SBD> MR>... (2) acoustic and electric sets;... (0) flac16; Recording by... (0) flac16; Acoustic... (1) flac16; Recording... (0) flac16; SBD > ? >... (0) flac24; Partial Show... (0) flac16; Partial Show... (0)
Date User Comment