Browse Collections Artists Sources   Search Dates

Add Show    List Management    Help


Grateful Dead 12/31/81
Oakland Auditorium Arena, Oakland, CA
Comments Add Comment    Source Collectors    Add to Collection    Add to Want List    History
Source # 96082 Other Sources
Entered by Gary Field
Checksums flac-md5 , ffp
Disc Counts 2 / 4
Media Size
Date Circulated
Date Added
11/26/2008
11/26/2008
Source Summary flac16; Recording Info: SBD -> Cassette Master (Nakamichi 550/Maxell UDXLII-S90); Transfer Info:Cassette Master (Nakamichi DR-1) -> Sound Devices 744T (24bit/96k) -> Adobe Audition v1.5 -> Samplitude Professional v10.1 -> FLAC/16; All Transfers and Mastering By Charlie Miller; Upgrade in circulation 
  Archive
Source Information - Download Text | Download Zip
Grateful Dead - December 31, 1981
Oakland Auditorium - Oakland, CA

Recording Info:
SBD -> Cassette Master (Nakamichi 550/Maxell UDXLII-S90)

Transfer Info:
Cassette Master (Nakamichi DR-1) -> Sound Devices 744T (24bit/96k) ->
Adobe Audition v1.5 -> Samplitude Professional v10.1 -> FLAC/16
(4 Discs Audio / 1 DVD FLAC)

All Transfers and Mastering By Charlie Miller
[email protected]
November 25, 2008

Patch Info:
(FOB) Nakamichi 100 -> Cassette Master -> Cassette (shnid=85628) supplies:
Terrapin Station (12:47 - 13:03)
Goin' Down The Road Feeling Bad (6:54 - 7:01)

Notes:
-- All sets are seamless
-- Joan Baez is backed by The Grateful Dead during her acoustic set
-- C C Rider, Big Boss Man, Minglewood and Iko with Matthew Kelly
-- Roses, BIODTL, Don't Ease Me In and Baby Blue with Joan Baez
-- The Other One, Not Fade Away and GDTRFB with John Cippolina
-- This is an upgrade to all previous circulating copies
-- Patch source was EQ'd and pitch corrected
-- Thanks to Joani Walker and Paul Scotton for the tapes
-- Thanks to Joe B. Jones for his help with the pitch correction

Joan Baez Acoustic Set:
d1t01 - Land Of A Thousand Dances
d1t02 - Do Right Woman
d1t03 - The Boxer
d1t04 - Tunisian New Year Song
d1t05 - Me & Bobby McGee
d1t06 - Bye Bye Love
d1t07 - Lucifer's Eyes
d1t08 - Children Of The 80's
d1t09 - Banks Of The Ohio

Set 1:
d2t01 - Shakedown Street
d2t02 - Me And My Uncle ->
d2t03 - Mexicali Blues
d2t04 - Cold Rain And Snow
d2t05 - C C Rider
d2t06 - It Must Have Been The Roses ->
d2t07 - Beat It On Down The Line
d2t08 - Big Boss Man ->
d2t09 - New Minglewood Blues
d2t10 - Don't Ease Me In

Set 2:
d3t01 - Ken Kesey Banter/Midnight Countdown
d3t02 - Iko Iko
d3t03 - Playing In The Band ->
d3t04 - Terrapin Station ->
d3t05 - Playing In The Band ->
d3t06 - Drums ->
d3t07 - Space ->
d4t01 - The Other One ->
d4t02 - Not Fade Away ->
d4t03 - Goin' Down The Road Feeling Bad ->
d4t04 - Morning Dew

Set 3:
d4t05 - Dark Star ->
d4t06 - Bertha ->
d4t07 - Good Lovin'

Encore:
d4t08 - It's All Over Now, Baby Blue
d4t09 - The Chinese Joke


SHNTOOL OUTPUT:
    length     expanded size   cdr  WAVE problems filename
     3:53.53       41225900    ---   --   -----   gd81-12-31d1t01.wav
     3:16.41       34670876    ---   --   -----   gd81-12-31d1t02.wav
     4:06.54       43521452    ---   --   -----   gd81-12-31d1t03.wav
     2:40.51       28343996    ---   --   -----   gd81-12-31d1t04.wav
     4:40.22       49443788    ---   --   -----   gd81-12-31d1t05.wav
     3:02.45       32210684    ---   --   -----   gd81-12-31d1t06.wav
     5:37.52       59569148    ---   --   -----   gd81-12-31d1t07.wav
     6:25.16       67951676    ---   --   -----   gd81-12-31d1t08.wav
     4:45.10       50297564    ---   --   -----   gd81-12-31d1t09.wav
    16:53.33      178770860    ---   --   -----   gd81-12-31d2t01.wav
     2:58.53       31523900    ---   --   -----   gd81-12-31d2t02.wav
     4:46.17       50490428    ---   --   -----   gd81-12-31d2t03.wav
     6:21.05       67220204    ---   --   -----   gd81-12-31d2t04.wav
     9:08.01       96669596    ---   --   -----   gd81-12-31d2t05.wav
     6:27.30       68337404    ---   --   -----   gd81-12-31d2t06.wav
     3:52.32       41000108    ---   --   -----   gd81-12-31d2t07.wav
     5:55.21       62671436    ---   --   -----   gd81-12-31d2t08.wav
     6:27.64       68417372    ---   --   -----   gd81-12-31d2t09.wav
     3:15.38       34487420    ---   --   -----   gd81-12-31d2t10.wav
     7:42.74       81670892    ---   --   -----   gd81-12-31d3t01.wav
     8:58.22       94954988    ---   --   -----   gd81-12-31d3t02.wav
    14:30.60      153609164    ---   --   -----   gd81-12-31d3t03.wav
    14:20.41      151800476    ---   --   -----   gd81-12-31d3t04.wav
     3:10.66       33671276    ---   --   -----   gd81-12-31d3t05.wav
     9:35.41      101526476    ---   --   -----   gd81-12-31d3t06.wav
    12:48.60      135616364    ---   --   -----   gd81-12-31d3t07.wav
     5:40.50       60093644    ---   --   -----   gd81-12-31d4t01.wav
     7:20.00       77616044    ---   --   -----   gd81-12-31d4t02.wav
     7:33.03       79916300    ---   --   -----   gd81-12-31d4t03.wav
    10:49.37      114570668    ---   --   -----   gd81-12-31d4t04.wav
    15:26.15      163381724    ---   --   -----   gd81-12-31d4t05.wav
     6:22.61       67528316    ---   --   -----   gd81-12-31d4t06.wav
    10:08.26      107312396    ---   --   -----   gd81-12-31d4t07.wav
     7:00.32       74163308    ---   --   -----   gd81-12-31d4t08.wav
     0:55.07        9718508    ---   --   -----   gd81-12-31d4t09.wav
   246:58.33     2613974356 B                     (totals for 35 files)
Show Checksums
flac-md5
9cefb368e2e84fd14aa985d59785bf19 *gd81-12-31d1t01.flac
86bfe73b683f0a0e2e78d5da5ede92d3 *gd81-12-31d1t02.flac
b3127b7cd255ba7eed61aaddc4a3e467 *gd81-12-31d1t03.flac
73b754b5e9f46c7c07836808da06994e *gd81-12-31d1t04.flac
61f0b0d3d2854179813b7a36a52ce39b *gd81-12-31d1t05.flac
70e246c5d7f0fbab282f2ad8c8bb1ab9 *gd81-12-31d1t06.flac
3c01be9407c59bfc97174316386e65c3 *gd81-12-31d1t07.flac
a6a0d07a0ccd44e8afbf472894a5eb93 *gd81-12-31d1t08.flac
1939c80c1debda47f9c23f70afcb17cd *gd81-12-31d1t09.flac
09869df888557f535d884892dd88bca0 *gd81-12-31d2t01.flac
e2eafecac1ab0f243ec5647759ebc9f9 *gd81-12-31d2t02.flac
d89f4453afa35f13c9bb7fdc3c407fc9 *gd81-12-31d2t03.flac
4ef3a47d4a25743bdd7567d2d8256c95 *gd81-12-31d2t04.flac
280824f0f69f03442033159a407540c6 *gd81-12-31d2t05.flac
af424690d8aad95341c67e09dfaab189 *gd81-12-31d2t06.flac
b501e46b0496fbd351bbb9babd8257cf *gd81-12-31d2t07.flac
f0ddc45a7bc53781702bfea25f99ecc5 *gd81-12-31d2t08.flac
364700a9a973fc844bf5089eea294b50 *gd81-12-31d2t09.flac
aacab3c8397ba5b90d8dd76218dcab4c *gd81-12-31d2t10.flac
0109226ecdf9c81f0426d00b120eeb4d *gd81-12-31d3t01.flac
49effae20a4b841202b360083db8288a *gd81-12-31d3t02.flac
77593bd5f5a1ed0afea56a18fdc091cc *gd81-12-31d3t03.flac
b91b42a99f1f001f4e942a89a20b0713 *gd81-12-31d3t04.flac
82a7b66e73c3052a43e9a82c9e25cab9 *gd81-12-31d3t05.flac
d16abafa7a7ef3fab6f8893d9372d400 *gd81-12-31d3t06.flac
5e206fd376622dc63fe2303e81cf1b76 *gd81-12-31d3t07.flac
710391ebe4682433c1255acdf6bcc83e *gd81-12-31d4t01.flac
b0788adc5ace246c5839e0e31dd483a5 *gd81-12-31d4t02.flac
d0a258c3c9457ac566afb9ad5700ec5a *gd81-12-31d4t03.flac
94cd14a69be4d817a56643bd8734c1b3 *gd81-12-31d4t04.flac
14f4c48d700428abd0c5f296700454f5 *gd81-12-31d4t05.flac
577e0f3a5b896f31867c94a6492db04b *gd81-12-31d4t06.flac
5e1d015200d634b19678bd1f4844aacd *gd81-12-31d4t07.flac
1778aa5790a7f0dd6b42adf5cabccae1 *gd81-12-31d4t08.flac
42ebbf1d0c81fa0230959127ab284eb5 *gd81-12-31d4t09.flac
ffp
gd81-12-31d1t01.flac:2a80c49ab6f27121014fc862d15a95f1
gd81-12-31d1t02.flac:d55cfd12c20d5a02142cf6ac8cd82ad3
gd81-12-31d1t03.flac:6063baae50eff88b4fa4f72108e626e8
gd81-12-31d1t04.flac:6527513931a12f490d4555efb170c2c9
gd81-12-31d1t05.flac:200fd0d551aeed4bb04cc58c025ac1bb
gd81-12-31d1t06.flac:f3dd838313bc6d6b8e82ca792edc2762
gd81-12-31d1t07.flac:f22a97f3bf65e54d97e3edd54492654c
gd81-12-31d1t08.flac:5b82812575c3c384537579a51ed0874c
gd81-12-31d1t09.flac:2bd638c406b0a6a31905f4a09f8856a0
gd81-12-31d2t01.flac:3f5adea523dea0b6b4979813d5d651dd
gd81-12-31d2t02.flac:a5d5909569eec0a5dc04d5a345d17af6
gd81-12-31d2t03.flac:dd7e74d6cf50f0e82f4d19b7924093bd
gd81-12-31d2t04.flac:4faeee1584272497d788e9c6c1c7e577
gd81-12-31d2t05.flac:9c7a7bce3c925afa9898ff320a21e5c4
gd81-12-31d2t06.flac:ebba4a03c5a2decc7e0644452bddefae
gd81-12-31d2t07.flac:1b4977dd59f8b2e971ca055aec8ef566
gd81-12-31d2t08.flac:c249138900697642dd306f3b46efb8d8
gd81-12-31d2t09.flac:e524a5c287f4f33e73db16aad7d62738
gd81-12-31d2t10.flac:d842ffdd5037a469584fbe874cf14e78
gd81-12-31d3t01.flac:4a2f02caac427e6e7ba1c27b32ca660d
gd81-12-31d3t02.flac:3e4906d63cd33a4a7aa57f326d2508ad
gd81-12-31d3t03.flac:4cf026d4b6dee498938fd7627e3116bb
gd81-12-31d3t04.flac:cd5f7bc8d4994ed1e34503a4485858cd
gd81-12-31d3t05.flac:b9ba73b7d730fd81b5b64b82f00a38b7
gd81-12-31d3t06.flac:a84ca3887c195f5ba8493beef05cab73
gd81-12-31d3t07.flac:3c4dabfcc976c05434d76f750953431d
gd81-12-31d4t01.flac:2646475d52ba5dfc2524bc15a718c9f3
gd81-12-31d4t02.flac:43408188f9e3a8b17c3753a3156e113c
gd81-12-31d4t03.flac:c803c84b46cab545dc4f3d27a87cbe43
gd81-12-31d4t04.flac:d414d778c59f2658283d778d5a30dc2c
gd81-12-31d4t05.flac:8a9ab91f10091815ddb95374f5b43f93
gd81-12-31d4t06.flac:01e953656296cd54b0a1262be0fefc2d
gd81-12-31d4t07.flac:9be42a6dcb947e66e9c78f85fb3300e4
gd81-12-31d4t08.flac:2beb508d80d41d72db1bd6c65ef34031
gd81-12-31d4t09.flac:25fd78324f3ec256fcb0de4eb26a563f

Comments
Add Comment
Other Sources (comments)
Reels > Cass > Dat > CDR;... (1) electric sets; Monitor... (4) Jay Ashley (Bertha)... (14) Acoustic set only (w/ Joan... (0) Master... (1) flac16; SBD>... (0) flac16; Recording by... (0) flac24; Recording... (0) flac16; Recording... (0) flac24; Recording... (0) flac16; Lineage: Nak... (0) flac16; Matrix 3... (0)
Date User Comment