Browse Collections Artists Sources   Search Dates

Add Show    List Management    Help


Grateful Dead 03/31/93
Nassau Coliseum, Uniondale, NY
Comments Add Comment    Source Collectors    Add to Collection    Add to Want List    History
Source # 96099 Other Sources
Entered by Matt Vernon
Checksums ffp , flac-md5
Disc Counts 2 / 2
Media Size
Date Circulated
Date Added
11/28/2008
11/28/2008
Source Summary flac16/48; AUD: AKG C460B/CK8 shotguns > unknown lead dat decks > Coax SPDIF > Casio DA-7 > Maxell DM-120's, front of OTS. Transfer: MAD > Sony TCD-D10P > Coax SPDIF > Audiophile 2496 > Wavelab > CD-Wave > TLH > FLAC 1648. Taped/transfer Andrew F. 
  Archive
Source Information - Download Text | Download Zip
GRATEFUL DEAD
Nassau Coliseum
Uniondale NY
03-31-1993

16bit/48kHz file-set

s1t01 Cold Rain & Snow
s1t02 Wang Dang Doodle
s1t03 Althea
s1t04 It's All Over Now
s1t05 Row Jimmy
s1t06 Let it Grow

s2t01 crowd & tuning
s2t02 Cumberland Blues
s2t03 Truckin'
s2t04 Lazy River Road
s2t05 Playin' in the Band >
s2t06 Uncle John's Band >
s2t07 Drums >
s2t08 Space >
s2t09 I Need a Miracle >
s2t10 Standing on the Moon >
s2t11 Sugar Magnolia
s2t12 Encore: I Fought the Law

AUD: AKG C460B/CK8 shotguns > unknown lead dat decks > Coax
SPDIF > Casio DA-7 > Maxell DM-120's, front of OTS.

Transfer: MAD > Sony TCD-D10P > Coax SPDIF > Audiophile 2496 >
Wavelab > CD-Wave > TLH > FLAC 1648. Taped/transfer Andrew F.

    length     expanded size    cdr  WAVE problems  fmt   ratio  filename
     6:56.773      80020516 B   cxx   --   ---xx   flac  0.5304  gd1993-03-31s1t01.flac
     7:04.880      81577004 B   cxx   --   ---xx   flac  0.5002  gd1993-03-31s1t02.flac
     8:22.947      96565804 B   cxx   --   ---xx   flac  0.5085  gd1993-03-31s1t03.flac
     9:10.253     105648684 B   cxx   --   ---xx   flac  0.5058  gd1993-03-31s1t04.flac
    11:02.933     127283244 B   cxx   --   ---xx   flac  0.5205  gd1993-03-31s1t05.flac
    13:37.140     156890924 B   cxx   --   ---xx   flac  0.5228  gd1993-03-31s1t06.flac
     1:51.172      21345100 B   cxx   --   ---xx   flac  0.4451  gd1993-03-31s2t01.flac
     6:23.440      73620524 B   cxx   --   ---xx   flac  0.5585  gd1993-03-31s2t02.flac
     7:30.160      86430764 B   cxx   --   ---xx   flac  0.5753  gd1993-03-31s2t03.flac
     7:27.307      85882924 B   cxx   --   ---xx   flac  0.5482  gd1993-03-31s2t04.flac
     8:07.813      93660204 B   cxx   --   ---xx   flac  0.5618  gd1993-03-31s2t05.flac
     8:48.640     101498924 B   cxx   --   ---xx   flac  0.5594  gd1993-03-31s2t06.flac
     8:15.187      95075884 B   cxx   --   ---xx   flac  0.4875  gd1993-03-31s2t07.flac
    11:03.480     127388204 B   cxx   --   ---xx   flac  0.4507  gd1993-03-31s2t08.flac
     4:23.720      50634284 B   cxx   --   ---xx   flac  0.5731  gd1993-03-31s2t09.flac
     8:35.533      98982444 B   cxx   --   ---xx   flac  0.5395  gd1993-03-31s2t10.flac
     8:56.280     102965804 B   cxx   --   ---xx   flac  0.5806  gd1993-03-31s2t11.flac
     3:06.599      35826964 B   cxx   --   ---xx   flac  0.5571  gd1993-03-31s2t12.flac
   140:44.257    1621298200 B                            0.5285  (18 files)

No errors occured.
Show Checksums
ffp
gd1993-03-31s1t01.flac:1cca029884d3f4d83c84a8f30b52c59f
gd1993-03-31s1t02.flac:8152b1b2eaafb8fc3795f24ae0492a16
gd1993-03-31s1t03.flac:e09436a371ff5689414737f803e492e3
gd1993-03-31s1t04.flac:718e467ddfbeab5c5db89676b34ce91c
gd1993-03-31s1t05.flac:8241827f1fccd50a8a8a948205882400
gd1993-03-31s1t06.flac:be00299439b5060c5731db678ad9e4d5
gd1993-03-31s2t01.flac:d69fb91bb1b2aa83e378c110faf01925
gd1993-03-31s2t02.flac:94642a7c6e37b0589c7417edce92c260
gd1993-03-31s2t03.flac:9eb0f5564852c6b682fea9abd8f96448
gd1993-03-31s2t04.flac:6fe10afec6f3c07f5ee69b86090329e3
gd1993-03-31s2t05.flac:b2f691dcd8d423cef11e823a2bd8817b
gd1993-03-31s2t06.flac:f6d0b29d076a3929958cb55f8218250e
gd1993-03-31s2t07.flac:b2177ce6ceef95d1c2a19fb19a456cf7
gd1993-03-31s2t08.flac:c2b0b4cfe6b367e7c7472913dacd733c
gd1993-03-31s2t09.flac:b6cfd4378869ef28b207cef8cfc1fe22
gd1993-03-31s2t10.flac:cfe3445843badc4a4aad194c8bff5914
gd1993-03-31s2t11.flac:4d4fec477bb525f847ac1d56e1a8509f
gd1993-03-31s2t12.flac:1969ff4a673f9900bf48e898fd219fe9
flac-md5
c9e0af36509f8a644ed33fb200a98126 *gd1993-03-31s1t01.flac
84e8737af458d7c20738423d51309daa *gd1993-03-31s1t02.flac
bf696536cba702c7c0f5a4a028110644 *gd1993-03-31s1t03.flac
6dda871b843ee06b50bbf34fec2aa805 *gd1993-03-31s1t04.flac
f29faad8b3f4f5710c63784d1bfd5c78 *gd1993-03-31s1t05.flac
5c09a7c699cd0aef1423d7fe8020e3eb *gd1993-03-31s1t06.flac
52b5e7169c354f483010d24f7bc9dc57 *gd1993-03-31s2t01.flac
9466bd2a0e116c524f718fdcf074af42 *gd1993-03-31s2t02.flac
845a6a1ca8e2c63cd41b8534521c1400 *gd1993-03-31s2t03.flac
2b71d7988148c31d478790775289fa03 *gd1993-03-31s2t04.flac
622843eadd7fd6dc3f0a92cf2e284d60 *gd1993-03-31s2t05.flac
e48ece71aeaf0cb290bdafac077e734f *gd1993-03-31s2t06.flac
3d6fe955bbb6513ecc92d345a54e4cf0 *gd1993-03-31s2t07.flac
8c3fa900489a3caf1bde73ba2fb14fad *gd1993-03-31s2t08.flac
a3149d9eb7fa9630f498ef612359bf13 *gd1993-03-31s2t09.flac
056924e5e4081174e354242c4752ea75 *gd1993-03-31s2t10.flac
5a24c4ca97da45bb26d0f410929156a3 *gd1993-03-31s2t11.flac
f339a2c78eb303ad8304fa4517424c6a *gd1993-03-31s2t12.flac

Comments
Add Comment
Other Sources (comments)
AUD(Schoeps CMC... (0) Recording Info: SBD -> Dat... (0) Soundcheck ; *Note* this is... (0) flac16; AUD: AKG... (0) flac16; Recording... (0) flac16; Source:... (0) flac16/48kHz; Source... (0) flac16/48kHz;... (0)
Date User Comment