Browse Collections Artists Sources   Search Dates

Add Show    List Management    Help


Grateful Dead 03/31/93
Nassau Coliseum, Uniondale, NY
Comments Add Comment    Source Collectors    Add to Collection    Add to Want List    History
Source # 96100 Other Sources
Entered by Matt Vernon
Checksums ffp , flac-md5
Disc Counts 2 / 2
Media Size
Date Circulated
Date Added
11/28/2008
11/28/2008
Source Summary flac16; AUD: AKG C460B/CK8 shotguns > unknown lead dat decks > Coax SPDIF > Casio DA-7 > Maxell DM-120's, front of OTS. Transfer: MAD > Sony TCD-D10P > Coax SPDIF > Audiophile 2496 > Wavelab > CD-Wave > R8Brain (to 44.1kHz) > TLH > FLAC 1644. Taped/transfer Andrew F. 
  Archive
Source Information - Download Text | Download Zip
GRATEFUL DEAD
Nassau Coliseum
Uniondale NY
03-31-1993

Disc One (71:59)

01 Cold Rain & Snow
02 Wang Dang Doodle
03 Althea
04 It's All Over Now
05 Row Jimmy
06 Let it Grow
-- set break --
07 crowd & tuning
08 Cumberland Blues
09 Truckin'

Disc Two (68:44)

01 Lazy River Road
02 Playin' in the Band >
03 Uncle John's Band >
04 Drums >
05 Space >
06 I Need a Miracle >
07 Standing on the Moon >
08 Sugar Magnolia
-- encore --  
09 I Fought the Law

AUD: AKG C460B/CK8 shotguns > unknown lead dat decks > Coax
SPDIF > Casio DA-7 > Maxell DM-120's, front of OTS.

Transfer: MAD > Sony TCD-D10P > Coax SPDIF > Audiophile 2496 >
Wavelab > CD-Wave > R8Brain (to 44.1kHz) > TLH > FLAC 1644.
Taped/transfer Andrew F.

Note: Disc break is seamless.

    length     expanded size    cdr  WAVE problems  fmt   ratio  filename
     6:56.57       73516508 B   ---   --   ---xx   flac  0.5524  gd1993-03-31d1t01.flac
     7:04.66       74948876 B   ---   --   ---xx   flac  0.5201  gd1993-03-31d1t02.flac
     8:22.71       88719836 B   ---   --   ---xx   flac  0.5292  gd1993-03-31d1t03.flac
     9:10.19       97064732 B   ---   --   ---xx   flac  0.5261  gd1993-03-31d1t04.flac
    11:02.70      116941484 B   ---   --   ---xx   flac  0.5385  gd1993-03-31d1t05.flac
    13:37.11      144144716 B   ---   --   ---xx   flac  0.5438  gd1993-03-31d1t06.flac
     1:51.13       19611020 B   ---   --   ---xx   flac  0.4613  gd1993-03-31d1t07.flac
     6:23.33       67638860 B   ---   --   ---xx   flac  0.5824  gd1993-03-31d1t08.flac
     7:30.12       79408268 B   ---   --   ---xx   flac  0.5965  gd1993-03-31d1t09.flac
     7:27.23       78904940 B   ---   --   ---xx   flac  0.5713  gd1993-03-31d2t01.flac
     8:07.61       86050316 B   ---   --   ---xx   flac  0.5855  gd1993-03-31d2t02.flac
     8:48.48       93252140 B   ---   --   ---xx   flac  0.5828  gd1993-03-31d2t03.flac
     8:15.14       87350972 B   ---   --   ---xx   flac  0.5067  gd1993-03-31d2t04.flac
    11:03.36      117037916 B   ---   --   ---xx   flac  0.4676  gd1993-03-31d2t05.flac
     4:23.54       46520252 B   ---   --   ---xx   flac  0.5973  gd1993-03-31d2t06.flac
     8:35.40       90940124 B   ---   --   ---xx   flac  0.5620  gd1993-03-31d2t07.flac
     8:56.21       94599836 B   ---   --   ---xx   flac  0.6054  gd1993-03-31d2t08.flac
     3:06.46       32918636 B   ---   --   ---xx   flac  0.5810  gd1993-03-31d2t09.flac
   140:44.20     1489569432 B                            0.5497  (18 files)

No errors occured.
Show Checksums
ffp
gd1993-03-31d1t01.flac:3063f6387734f07d87988b84afaa68e2
gd1993-03-31d1t02.flac:65eda2a86ef3e4e595488d687a670872
gd1993-03-31d1t03.flac:96648c183009d7d42a5254e492d7284d
gd1993-03-31d1t04.flac:eee6f2149cbbedf4d77107b7b1137114
gd1993-03-31d1t05.flac:5bcf27152f771c256e8338f0144fb773
gd1993-03-31d1t06.flac:834b7e15298594f1dba4752e3feec269
gd1993-03-31d1t07.flac:62fa29104c0eda91445f2331ae113022
gd1993-03-31d1t08.flac:12548407b7d249c9b6ec2021031d9d30
gd1993-03-31d1t09.flac:8bf835c206c1f3c326790f4b644f6841
gd1993-03-31d2t01.flac:df1b784e35137b053ded4c11178f8591
gd1993-03-31d2t02.flac:ecb1ab6993303326b8043d77c34319b6
gd1993-03-31d2t03.flac:e038f95bc238a17ee5705e99982097c9
gd1993-03-31d2t04.flac:ad359c4a2ad23788be44a87fba045762
gd1993-03-31d2t05.flac:7abd135713ee82703604b7eecf11d576
gd1993-03-31d2t06.flac:2d6581a7adfb2bc4351a061db37c6b3e
gd1993-03-31d2t07.flac:9b4615802581a2329c9382af57147488
gd1993-03-31d2t08.flac:ecb5cca8ee478ded65e0b98961f3f42c
gd1993-03-31d2t09.flac:fd240a4ac6c9a57b8bc9587712314957
flac-md5
453e72774aa396db20ce71ddfc08603c *gd1993-03-31d1t01.flac
6373e0e1dd93622297d232a32e53d340 *gd1993-03-31d1t02.flac
0b5a6b3c1087b64f2bb54a6ee89591e9 *gd1993-03-31d1t03.flac
142dc88f7f4bebf93920d46d92c66d2b *gd1993-03-31d1t04.flac
0d036e83dbdf5ffacdec4ea4b4445944 *gd1993-03-31d1t05.flac
417beb367988acc70cd32a526d4c63d7 *gd1993-03-31d1t06.flac
a3005fe36224d07370cc87189a61ff60 *gd1993-03-31d1t07.flac
67d9d2b71aeffeb69ac3aa40cfb3eaf2 *gd1993-03-31d1t08.flac
351af6f002a300f4e4bef38f85e49cef *gd1993-03-31d1t09.flac
173b036420baa7481c74d239b1f2b23f *gd1993-03-31d2t01.flac
ed07ecaa07c3d2bcbbd2debc09e536b3 *gd1993-03-31d2t02.flac
514a5b5303215dd26345e4b65bccac5c *gd1993-03-31d2t03.flac
3ec585a8eb9651faa072308d4ed5be52 *gd1993-03-31d2t04.flac
d16a995eaedff2b800e58a52df139c5b *gd1993-03-31d2t05.flac
0061723546d38ea7554a88e89bae3ec9 *gd1993-03-31d2t06.flac
e17e628d266280d5a2bebb5d00e82884 *gd1993-03-31d2t07.flac
3db51ae4e63e98edaf44021d1bc8ddf2 *gd1993-03-31d2t08.flac
9980fb5749d2f322648375eaea03cdf9 *gd1993-03-31d2t09.flac

Comments
Add Comment
Other Sources (comments)
AUD(Schoeps CMC... (0) Recording Info: SBD -> Dat... (0) Soundcheck ; *Note* this is... (0) flac16/48; AUD: AKG... (0) flac16; Recording... (0) flac16; Source:... (0) flac16/48kHz; Source... (0) flac16/48kHz;... (0)
Date User Comment