Browse Collections Artists Sources   Search Dates

Add Show    List Management    Help


Grateful Dead 04/01/93
Nassau Coliseum, Uniondale, NY
Comments Add Comment    Source Collectors    Add to Collection    Add to Want List    History
Source # 96102 Other Sources
Entered by Matt Vernon
Checksums ffp , flac-md5
Disc Counts 2 / 2
Media Size
Date Circulated
Date Added
11/29/2008
11/28/2008
Source Summary flac16/48; AUD: AKG C460B/CK8 shotguns > unknown lead dat decks > Coax SPDIF > Casio DA-7 > Sony DT-120's, front of OTS. Transfer: MAD > Sony TCD-D10P > Coax SPDIF > Audiophile 2496 > Wavelab > CD-Wave > TLH > FLAC 1648. Taped/transfer Andrew F. 
  Archive
Source Information - Download Text | Download Zip
GRATEFUL DEAD
Nassau Coliseum
Uniondale NY
04-01-1993

16bit/48kHz file-set

s1t01 Jack Straw
s1t02 They Love Eachother
s1t03 Minglewood Blues
s1t04 Candyman
s1t05 Desolation Row
s1t06 Stagger Lee
s1t07 Eternity
s1t08 Liberty

s2t01 Iko Iko (with Barney)
s2t02 Saint of Circumstance
s2t03 Crazy Fingers >
s2t04 Wave to the Wind > Jam >
s2t05 Drums >
s2t06 Electronic Percussion >
s2t07 Space >
s2t08 Way to Go Home
s2t09 The Days Between >
s2t10 Turn on Your Lovelight
s2t11 Encore: Rain

AUD: AKG C460B/CK8 shotguns > unknown lead dat decks > Coax
SPDIF > Casio DA-7 > Sony DT-120's, front of OTS.

Transfer: MAD > Sony TCD-D10P > Coax SPDIF > Audiophile 2496 >
Wavelab > CD-Wave > TLH > FLAC 1648. Taped/transfer Andrew F.

    length     expanded size    cdr  WAVE problems  fmt   ratio  filename
     5:40.385      65354004 B   cxx   --   ---xx   flac  0.5434  gd1993-04-01s1t01.flac
     7:23.133      85081644 B   cxx   --   ---xx   flac  0.5214  gd1993-04-01s1t02.flac
     8:43.053     100426284 B   cxx   --   ---xx   flac  0.5346  gd1993-04-01s1t03.flac
     6:57.187      80099884 B   cxx   --   ---xx   flac  0.5216  gd1993-04-01s1t04.flac
    10:06.240     116398124 B   cxx   --   ---xx   flac  0.5045  gd1993-04-01s1t05.flac
     6:23.333      73600044 B   cxx   --   ---xx   flac  0.5269  gd1993-04-01s1t06.flac
     9:41.293     111608364 B   cxx   --   ---xx   flac  0.4924  gd1993-04-01s1t07.flac
     7:07.154      82013532 B   cxx   --   ---xx   flac  0.5245  gd1993-04-01s1t08.flac
     8:42.394     100299672 B   cxx   --   ---xx   flac  0.5302  gd1993-04-01s2t01.flac
     8:03.520      92835884 B   cxx   --   ---xx   flac  0.5234  gd1993-04-01s2t02.flac
     8:49.720     101706284 B   cxx   --   ---xx   flac  0.4922  gd1993-04-01s2t03.flac
    10:27.773     120532524 B   cxx   --   ---xx   flac  0.5233  gd1993-04-01s2t04.flac
     5:42.213      65705004 B   cxx   --   ---xx   flac  0.4878  gd1993-04-01s2t05.flac
     8:17.693      95557164 B   cxx   --   ---xx   flac  0.4180  gd1993-04-01s2t06.flac
    10:26.280     120245804 B   cxx   --   ---xx   flac  0.4122  gd1993-04-01s2t07.flac
     7:26.560      85739564 B   cxx   --   ---xx   flac  0.5405  gd1993-04-01s2t08.flac
    10:33.067     121548844 B   cxx   --   ---xx   flac  0.4993  gd1993-04-01s2t09.flac
     6:28.000      74496044 B   cxx   --   ---xx   flac  0.5347  gd1993-04-01s2t10.flac
     5:49.822      67165912 B   cxx   --   ---xx   flac  0.5254  gd1993-04-01s2t11.flac
   152:48.822    1760414580 B                            0.5052  (19 files)

No errors occured.
Show Checksums
ffp
gd1993-04-01s1t01.flac:9a24e338ec3de65bb61cb788ccdb5bca
gd1993-04-01s1t02.flac:b8732332f0cd8de51faaa885313cd1c8
gd1993-04-01s1t03.flac:2863598cdb5e2c7b27304ceec3a6803b
gd1993-04-01s1t04.flac:9a25d0c0809941a5960e90915e936ccd
gd1993-04-01s1t05.flac:82afd81144018287caf4b928ae9b890a
gd1993-04-01s1t06.flac:eb133864a86817ff6c0fee1bedb54689
gd1993-04-01s1t07.flac:fdb047e63183e67ebfa2c6793e67595c
gd1993-04-01s1t08.flac:a1ade5c39c2ec690db29df89f5a035de
gd1993-04-01s2t01.flac:37cb80efabf9ef733a0723a9fee4c52f
gd1993-04-01s2t02.flac:36e03e70a77a33c6ea7c6bb886a7bf19
gd1993-04-01s2t03.flac:a6a8827acfd6d8fac10bcac26ac71e6e
gd1993-04-01s2t04.flac:2686d08a465dd575e3502dae8e854802
gd1993-04-01s2t05.flac:efdd85c0396df80b8b8b8c327a4619c6
gd1993-04-01s2t06.flac:7e14d1428ed4d8c67867d58537231480
gd1993-04-01s2t07.flac:5183db9897c1d27affc830a6da7e4211
gd1993-04-01s2t08.flac:7f4096b819f9677e4b0bdb2c38ee05a5
gd1993-04-01s2t09.flac:39ced2f41a6a407818282d565a6d240d
gd1993-04-01s2t10.flac:ea428659ebadfa8c200f9b5676b9fc8e
gd1993-04-01s2t11.flac:e9f5f7c6105372fb43ac29f4e71fc993
flac-md5
3915923607ceedf3d70b767f2ff3963d *gd1993-04-01s1t01.flac
7036f3cb4653c201c921007678bd7d03 *gd1993-04-01s1t02.flac
c1097e7d00f93b83cfb1d986750ab17d *gd1993-04-01s1t03.flac
14c4fdc6465ae3801359d2f4b8c31f7f *gd1993-04-01s1t04.flac
4b86b1e00743203784c412e4a21496fb *gd1993-04-01s1t05.flac
1a471bd8981df8116cc88fb78fbeb44d *gd1993-04-01s1t06.flac
847cfeca0f880badc75f0db6cf8ec2e6 *gd1993-04-01s1t07.flac
966c1dca2056a3ca2fb446f7a6183afb *gd1993-04-01s1t08.flac
485cd4513c9171cc600bb76a2145e704 *gd1993-04-01s2t01.flac
e630a82655521530c59500b0ec98fdfb *gd1993-04-01s2t02.flac
a0abd871a64b573bf6388cf8fed41f9c *gd1993-04-01s2t03.flac
9994031949235561fad3599b70bdf730 *gd1993-04-01s2t04.flac
d7aa50e05b97cee44bb9d1bda8b7341f *gd1993-04-01s2t05.flac
eed6a904d5b22a026de8b157af24fc24 *gd1993-04-01s2t06.flac
a46a57b9fcab4e041b4856c84a19cdc4 *gd1993-04-01s2t07.flac
7fd97186c0c3fdf84e55b115c97ea4dd *gd1993-04-01s2t08.flac
f49acbf862edff8a53a7517f85647449 *gd1993-04-01s2t09.flac
9238bebf36a2d610c6409721ffdb7ef8 *gd1993-04-01s2t10.flac
9ae081e895c9dbf07f4f6e0b46fa8a1c *gd1993-04-01s2t11.flac

Comments
Add Comment
Other Sources (comments)
B&K 4011 w/balls >... (0) DSBD > C > DAT > CD > EAC >... (3) flac16; AUD: AKG... (0) flac16/48kHz; Source... (0) flac16/48kHz;... (0)
Date User Comment