Browse Collections Artists Sources   Search Dates

Add Show    List Management    Help


Grateful Dead 04/01/93
Nassau Coliseum, Uniondale, NY
Comments Add Comment    Source Collectors    Add to Collection    Add to Want List    History
Source # 96103 Other Sources
Entered by Matt Vernon
Checksums ffp , flac-md5
Disc Counts 2 / 2
Media Size
Date Circulated
Date Added
11/29/2008
11/28/2008
Source Summary flac16; AUD: AKG C460B/CK8 shotguns > unknown lead dat decks > Coax SPDIF > Casio DA-7 > Sony DT-120's, front of OTS. Transfer: MAD > Sony TCD-D10P > Coax SPDIF > Audiophile 2496 > Wavelab > CD-Wave > R8Brain (to 44.1kHz) > TLH > FLAC 1644. Taped/transfer Andrew F. 
  Archive
Source Information - Download Text | Download Zip
GRATEFUL DEAD
Nassau Coliseum
Uniondale NY
04-01-1993

Disc One (78:47)

01 Jack Straw
02 They Love Eachother
03 Minglewood Blues
04 Candyman
05 Desolation Row
06 Stagger Lee
07 Eternity
08 Liberty
-- set break --
09 Iko Iko (with Barney)
10 Saint of Circumstance

Disc Two (74:01)

01 Crazy Fingers >
02 Wave to the Wind > Jam >
03 Drums >
04 Electronic Percussion >
05 Space >
06 Way to Go Home
07 The Days Between >
08 Turn on Your Lovelight
-- encore --
09 Rain

AUD: AKG C460B/CK8 shotguns > unknown lead dat decks > Coax
SPDIF > Casio DA-7 > Sony DT-120's, front of OTS.

Transfer: MAD > Sony TCD-D10P > Coax SPDIF > Audiophile 2496 >
Wavelab > CD-Wave > R8Brain (to 44.1kHz) > TLH > FLAC 1644.
Taped/transfer Andrew F.

Note: Disc break is seamless.

    length     expanded size    cdr  WAVE problems  fmt   ratio  filename
     5:40.28       60041900 B   ---   --   ---xx   flac  0.5684  gd1993-04-01d1t01.flac
     7:23.10       78168764 B   ---   --   ---xx   flac  0.5449  gd1993-04-01d1t02.flac
     8:43.04       92266652 B   ---   --   ---xx   flac  0.5574  gd1993-04-01d1t03.flac
     6:57.14       73591772 B   ---   --   ---xx   flac  0.5431  gd1993-04-01d1t04.flac
    10:06.18      106940780 B   ---   --   ---xx   flac  0.5274  gd1993-04-01d1t05.flac
     6:23.25       67620044 B   ---   --   ---xx   flac  0.5507  gd1993-04-01d1t06.flac
     9:41.22      102540188 B   ---   --   ---xx   flac  0.5133  gd1993-04-01d1t07.flac
     7:07.12       75351068 B   ---   --   ---xx   flac  0.5490  gd1993-04-01d1t08.flac
     8:42.29       92149052 B   ---   --   ---xx   flac  0.5532  gd1993-04-01d1t09.flac
     8:03.39       85292972 B   ---   --   ---xx   flac  0.5470  gd1993-04-01d1t10.flac
     8:49.54       93442652 B   ---   --   ---xx   flac  0.5136  gd1993-04-01d2t01.flac
    10:27.58      110739260 B   ---   --   ---xx   flac  0.5467  gd1993-04-01d2t02.flac
     5:42.16       60366476 B   ---   --   ---xx   flac  0.5079  gd1993-04-01d2t03.flac
     8:17.52       87793148 B   ---   --   ---xx   flac  0.4320  gd1993-04-01d2t04.flac
    10:26.21      110475836 B   ---   --   ---xx   flac  0.4260  gd1993-04-01d2t05.flac
     7:26.42       78773228 B   ---   --   ---xx   flac  0.5645  gd1993-04-01d2t06.flac
    10:33.05      111673004 B   ---   --   ---xx   flac  0.5201  gd1993-04-01d2t07.flac
     6:28.00       68443244 B   ---   --   ---xx   flac  0.5593  gd1993-04-01d2t08.flac
     5:49.63       61711820 B   ---   --   ---xx   flac  0.5493  gd1993-04-01d2t09.flac
   152:48.62     1617381860 B                            0.5270  (19 files)

No errors occured.
Show Checksums
ffp
gd1993-04-01d1t01.flac:56016b8db4a3ba02401d7012d81b2674
gd1993-04-01d1t02.flac:7a96ed501ab7e3ced7378e1ab93eaec1
gd1993-04-01d1t03.flac:018dc732a4fa770355bd64adcd997bc0
gd1993-04-01d1t04.flac:3a53d522041acb0efa46c9c9bdc961c8
gd1993-04-01d1t05.flac:086ca1b3fd18f975530fb9afeb3a3d96
gd1993-04-01d1t06.flac:f2e41c9969be89c5377af15845ab1531
gd1993-04-01d1t07.flac:346a9084ea7967da1aba95e58e9eada3
gd1993-04-01d1t08.flac:7f6ba4c3a156972fbaf25576419971cb
gd1993-04-01d1t09.flac:a9ca6d865f9d662dde90a51923ec6149
gd1993-04-01d1t10.flac:2eafc0819679cb4e41a35ea28a5c5640
gd1993-04-01d2t01.flac:05e202bbf472a44e051441e8d79befd6
gd1993-04-01d2t02.flac:c4b15ada8923944ca2578f6def1d4291
gd1993-04-01d2t03.flac:09cf3ed8be804041399d890934dfeeb0
gd1993-04-01d2t04.flac:c525014bc67e62903cd7d6f7b35d33e1
gd1993-04-01d2t05.flac:6734308a98007d18f3155c08501c0d4b
gd1993-04-01d2t06.flac:6bb94dcea21d4d94d4ebb784095eadbf
gd1993-04-01d2t07.flac:28deb3d1c97e7c95e99234ff60b81517
gd1993-04-01d2t08.flac:7ef4f1e99dd29ed0aa621a4f79ae6feb
gd1993-04-01d2t09.flac:5356db8a05e74ba593b17e74ce8bb174
flac-md5
3170bd4b558abde811726c9c0a3036ff *gd1993-04-01d1t01.flac
e56b026c943a0fb289e972d6105dc038 *gd1993-04-01d1t02.flac
d9c146360aeeafbc18ebe4b18ba20ae8 *gd1993-04-01d1t03.flac
edc26b8d1914f27a4bad75001b6bb1bd *gd1993-04-01d1t04.flac
5a1fa06aa789bfed4f398849b158986d *gd1993-04-01d1t05.flac
e4bfe68e37f35c7eaa934bf32611a34b *gd1993-04-01d1t06.flac
fbd352b5211f0c59b9f6fbeb8ae37085 *gd1993-04-01d1t07.flac
cb8bac57176cf0505f657d4e6ddca681 *gd1993-04-01d1t08.flac
d1993f8a1dab068a2af91c845b92811d *gd1993-04-01d1t09.flac
fa647ff4a559c3a8c7f7c300bafb6f47 *gd1993-04-01d1t10.flac
82db3ce17b9408ce042e310df22e953e *gd1993-04-01d2t01.flac
b6a6180873e5881e661afa3d02ccc84e *gd1993-04-01d2t02.flac
7f00a50e74fdd7bf0490a2d9252578d9 *gd1993-04-01d2t03.flac
8bcfd6bcb63c36f5dfd0639ccf96b261 *gd1993-04-01d2t04.flac
76bddb5c7c99758135cb21e37e69e628 *gd1993-04-01d2t05.flac
25410711188985bf36534f68146ddd2c *gd1993-04-01d2t06.flac
471db47b50fe8cecf4e0a14a958ea8f2 *gd1993-04-01d2t07.flac
ccadcc456ef076770657902fff92d014 *gd1993-04-01d2t08.flac
76296cf3bc46f8247563a21ecaf4b391 *gd1993-04-01d2t09.flac

Comments
Add Comment
Other Sources (comments)
B&K 4011 w/balls >... (0) DSBD > C > DAT > CD > EAC >... (3) flac16/48; AUD: AKG... (0) flac16/48kHz; Source... (0) flac16/48kHz;... (0)
Date User Comment