Browse Collections Artists Sources   Search Dates

Add Show    List Management    Help


Garcia 11/19/91
Providence Civic Center, Providence, RI
Comments Add Comment    Source Collectors    Add to Collection    Add to Want List    History
Source # 96137 Other Sources
Entered by Joe Jupille
Checksums ffp
Disc Counts 2 / 2
Media Size
Date Circulated
Date Added
11/30/2008
11/30/2008
Source Summary JGB: Alabama Bob's Sennheiser MD-421's > Sony TC-D5M > Maxell MX-110's, with no Dolby, FOB 15th row center. Transfer: MAC > Nakamichi DR-8 (no Dolby) > Audiophile 2496 > Wavelab > CD-Wave > TLH > FLAC 1644. Transfer by Andrew F. 
Source Information - Download Text | Download Zip
JERRY GARCIA BAND
Civic Center
Providence RI
11-19-1991

Disc One - Set One (66:59)

01 How Sweet It Is
02 He Ain't Give You None
03 That's What Love Will Make You Do
04 And It Stoned Me
05 Dear Prudence
06 Run for the Roses
07 Senor (Tales of Yankee Power)
08 Deal

Disc Two - Set Two (76:46)

01 Lay Down Sally
02 Shining Star
03 Waiting for a Miracle
04 Ain't No Bread in the Breadbox
05 Tore Up Over You
06 Don't Let Go
07 That Lucky Old Sun
08 Midnight Moonlight

AUD: Sennheiser MD-421's > Sony TC-D5M > Maxell MX-110's,
with no Dolby, FOB 15th row center. Taped by Alabama Bob.

Transfer: MAC > Nakamichi DR-8 (no Dolby) > Audiophile 2496 >
Wavelab > CD-Wave > TLH > FLAC 1644. Transfer by Andrew F.

The recording started late and is missing the first two songs.
These were replaced with ShnID-11858. The SHN's were decoded to
WAV to match the levels in the main source using Wavelab, then
recoded to FLAC. ShnID-11858 patches are as follows:
- How Sweet It Is, entire track.
- He Ain't Give You None, entire track.
- TWLWMYD, 0:00 > 0:08.
- And It Stoned Me, 0:00 > 0:41.

    length     expanded size    cdr  WAVE problems  fmt   ratio  filename
     7:14.00       76557644 B   ---   --   ---xx   flac  0.5905  jgb1991-11-19d1t01.flac
     9:27.38      100108220 B   ---   --   ---xx   flac  0.5752  jgb1991-11-19d1t02.flac
     9:03.15       95820524 B   ---   --   ---xx   flac  0.5866  jgb1991-11-19d1t03.flac
     8:38.17       91415228 B   ---   --   ---xx   flac  0.5818  jgb1991-11-19d1t04.flac
    11:42.06      123846956 B   ---   --   ---xx   flac  0.5898  jgb1991-11-19d1t05.flac
     5:51.52       62038748 B   ---   --   ---xx   flac  0.5870  jgb1991-11-19d1t06.flac
     6:19.35       66937964 B   ---   --   ---xx   flac  0.5447  jgb1991-11-19d1t07.flac
     8:42.72       92250188 B   ---   --   ---xx   flac  0.6132  jgb1991-11-19d1t08.flac
     8:34.08       90688460 B   ---   --   ---xx   flac  0.5461  jgb1991-11-19d2t01.flac
    12:12.44      129228332 B   ---   --   ---xx   flac  0.5697  jgb1991-11-19d2t02.flac
     6:38.44       70310732 B   ---   --   ---xx   flac  0.5894  jgb1991-11-19d2t03.flac
     9:17.28       98320700 B   ---   --   ---xx   flac  0.5983  jgb1991-11-19d2t04.flac
     7:39.40       81061724 B   ---   --   ---xx   flac  0.6114  jgb1991-11-19d2t05.flac
    13:49.53      146360300 B   ---   --   ---xx   flac  0.5633  jgb1991-11-19d2t06.flac
    12:23.53      131189900 B   ---   --   ---xx   flac  0.5451  jgb1991-11-19d2t07.flac
     6:10.68       65427980 B   ---   --   ---xx   flac  0.6098  jgb1991-11-19d2t08.flac
   143:45.48     1521563600 B                            0.5793  (16 files)

No errors occured.
Show Checksums
ffp
jgb1991-11-19d1t01.flac:ec8426765aa8e22d2ab331ce8ac775d7
jgb1991-11-19d1t02.flac:08ce85d10c6c455db6bd87ee17b7da7f
jgb1991-11-19d1t03.flac:48e8d98cd859deb90eb862048c2b7fc9
jgb1991-11-19d1t04.flac:c0b32e03a9a4536c800492bc9914c044
jgb1991-11-19d1t05.flac:d2d578c7a50c18a7f9a7547730c36613
jgb1991-11-19d1t06.flac:445309bca7a557e76ab1975419be560f
jgb1991-11-19d1t07.flac:94dcc49515f3c5b49e5d6796ea040e38
jgb1991-11-19d1t08.flac:860401229e58d5d9939a10f16be8e378
jgb1991-11-19d2t01.flac:d56723f243bc20b3cea913f7844da4f2
jgb1991-11-19d2t02.flac:f90fc22dc28613f16e02761243ba2d65
jgb1991-11-19d2t03.flac:153b9e2f4b630f135fc416725b9826d1
jgb1991-11-19d2t04.flac:ad0973d31bf57033b7f4e092f37f19fb
jgb1991-11-19d2t05.flac:bf6398a6f5dc0968539f6958ba01b13a
jgb1991-11-19d2t06.flac:68e2e4e76d9aa55b3022dba7b2ceea46
jgb1991-11-19d2t07.flac:56a133d2975e20f641d9b6331e8a706d
jgb1991-11-19d2t08.flac:92f70494f9b50ed3c94288250b4500a3

Comments
Add Comment
Other Sources (comments)
Jerry Garcia Band: Schoeps... (1) Jerry Garcia Band: Fixed... (0) Jerry Garcia Band: MAD... (0)
Date User Comment