Browse Collections Artists Sources   Search Dates

Add Show    List Management    Help


Grateful Dead 04/23/83
Veterans' Memorial Coliseum, New Haven, CT
Comments Add Comment    Source Collectors    Add to Collection    Add to Want List    History
Source # 96150 Other Sources
Entered by Gary Field
Checksums ffp , flac-md5
Disc Counts 2 / 3
Media Size
Date Circulated
Date Added
12/01/2008
12/01/2008
Source Summary flac16; Source:FOB-Sennheiser 421 > Master Cass (Sony D5) > Dat > CDR > EAC > SHN > Wav > flac; edited with Adobe Audition and remastered with iZotope Ozone by SIRMick, December 2008 
  Archive
Source Information - Download Text | Download Zip
Grateful Dead
New Haven Coliseum
New Haven, Connecticut
4/23/83

Source:FOB-Sennheiser 421 > Master Cass (Sony D5) > Dat > CDR > EAC > SHN > Wav > flac
              DAE(EAC)+SHN Encoding by Jeff M.

Disc 1
set I

01   Alabama Getaway >
02   Greatest Story Ever Told
03   tuning
04   Candyman
05   Minglewood Blues
06   Tennesee Jed
07   tuning
08   Lazy Lightnin' >
09   Supplication
10   Peggy-O
11   Far From Me
12   The Music Never Stopped


Disc 2
set II

01   Scarlet Begonias >
02   Fire On the Mountain >
03   Lost Sailor >
04   St. Of Circumstance >
05   Drums >


Disc 3
set II cont'd

01   Space >
02   The Other One >
03   Wharf Rat >
04   Throwing Stones >
05   Not Fade Away

encores

06   One More Saturday Night >
07   Brokedown Palace



Notes:

This is a remaster of shnid 1864

- dc offset removed and gain in left channel increased to make the sound more central
- repeated section of 1:22, removed from "Space"  
- small gaps in "Lost Sailor" and "Throwing Stones" closed
- a number of small dropouts have been repaired
- the tape was paused between some songs, these have been cleaned up with crossfades
- seamless change between d2 and d3

Patches:

source Sennheiser MD421's > Sony D5 (shnid 88482)

- the start of Peggy-O was clipped, about 15 seconds added to include some crowd
- "Scarlet Begonias"  3:00 - 3:25
- tape flip of 4:03 between "Drums" and "Space"
- "Not Fade Away" 0:05 - 0:11


Comments:

- Weir has guitar problems during "Greatest Story" and beginning of "Candyman", a squeaking
   noise can be heard  
- "Funiculi Funicula" tuning before "Candyman"


edited with Adobe Audition and remastered with iZotope Ozone
SIRMick
December 2008




shntool output:

    length     expanded size   cdr  WAVE problems filename
     5:18.60       56236364    ---   --   ---xx   gd1983-04-23d1t01.flac
     4:00.09       42357212    ---   --   ---xx   gd1983-04-23d1t02.flac
     1:05.26       11527196    ---   --   ---xx   gd1983-04-23d1t03.flac
     7:01.54       74391452    ---   --   ---xx   gd1983-04-23d1t04.flac
     8:02.00       85024844    ---   --   ---xx   gd1983-04-23d1t05.flac
     7:56.14       83999372    ---   --   ---xx   gd1983-04-23d1t06.flac
     1:19.40       14029724    ---   --   ---xx   gd1983-04-23d1t07.flac
     3:34.61       37893116    ---   --   ---xx   gd1983-04-23d1t08.flac
     6:26.39       68182172    ---   --   ---xx   gd1983-04-23d1t09.flac
     7:58.19       84363932    ---   --   ---xx   gd1983-04-23d1t10.flac
     4:29.15       47486924    ---   --   ---xx   gd1983-04-23d1t11.flac
     8:37.09       91220012    ---   --   ---xx   gd1983-04-23d1t12.flac
    12:47.08      135317660    ---   --   ---xx   gd1983-04-23d2t01.flac
    13:29.34      142787612    ---   --   ---xx   gd1983-04-23d2t02.flac
     7:54.15       83648924    ---   --   ---xx   gd1983-04-23d2t03.flac
     7:21.23       77846540    ---   --   ---xx   gd1983-04-23d2t04.flac
     8:59.57       95213708    ---   --   ---xx   gd1983-04-23d2t05.flac
     7:35.39       80353772    ---   --   ---xx   gd1983-04-23d3t01.flac
    18:19.07      193880108    ---   --   ---xx   gd1983-04-23d3t02.flac
     9:14.34       97805612    ---   --   ---xx   gd1983-04-23d3t03.flac
     9:13.68       97709180    ---   --   ---xx   gd1983-04-23d3t04.flac
     9:17.11       98280716    ---   --   ---xx   gd1983-04-23d3t05.flac
     4:21.73       46212140    ---   --   ---xx   gd1983-04-23d3t06.flac
     5:27.62       57828668    ---   --   ---xx   gd1983-04-23d3t07.flac
   179:51.27     1903596960 B                     (totals for 24 files, 0.6497 overall compression ratio)
Show Checksums
ffp
gd1983-04-23d1t01.flac:bc5e4addf25e9ea61ed769efa1c7c210
gd1983-04-23d1t02.flac:16020b5bcfa3c68dbb176a74d218a3f4
gd1983-04-23d1t03.flac:3afa2357bbd7e758ba550aa06c995559
gd1983-04-23d1t04.flac:4e1b313ec0e827460a35ff11f1aa1b88
gd1983-04-23d1t05.flac:396ef3de427769547b58773dcf3659c3
gd1983-04-23d1t06.flac:a8bda032753b2ccda6538c760d5c2618
gd1983-04-23d1t07.flac:ad6c4293077e2f29b737849f9d823aac
gd1983-04-23d1t08.flac:b3c906dbe31d4ccbbd2844890dc7b6ff
gd1983-04-23d1t09.flac:9e85d93e647e8b3fdf89aaef69a7a69e
gd1983-04-23d1t10.flac:795bcb98f3f01f686e7435431c4545fa
gd1983-04-23d1t11.flac:87a880edb8a2efc89b3ff265a4d8b765
gd1983-04-23d1t12.flac:0e06a206a51ed45a17b398de7e87d9f3
gd1983-04-23d2t01.flac:007efa6ded34a5e0a7372794e4670c12
gd1983-04-23d2t02.flac:f85d740ba05ea67ab013ee900338a7cb
gd1983-04-23d2t03.flac:5236dd203c7c1307806996734789fb58
gd1983-04-23d2t04.flac:081b86bc60fb95eeb9dff241097c769a
gd1983-04-23d2t05.flac:f4e0a97751cf04e1a3b8170ae910ce55
gd1983-04-23d3t01.flac:91f71920eef98adede957aecb95724f9
gd1983-04-23d3t02.flac:64cf30915d48c4e0a3aa1b48073331a4
gd1983-04-23d3t03.flac:ff782449e78db3551587ed74b473de18
gd1983-04-23d3t04.flac:2b383c01b1d6e9cba675d3c3e1db6672
gd1983-04-23d3t05.flac:9313018edf4677fe3bf7594372c0ae0a
gd1983-04-23d3t06.flac:3d426026c91425dff17f70ea9484cd71
gd1983-04-23d3t07.flac:206cb8b409d32b23819580d1f5897ec1
flac-md5
bd4ca9137c23f33a2e4bf962189fe602 *gd1983-04-23d1t01.flac
de91a2e80c468d0900c1488210e9cc2c *gd1983-04-23d1t02.flac
63a338d961918317b43f0e2e8c8fafba *gd1983-04-23d1t03.flac
bd75f4dd8a56d2aa23e0767fdf609c6a *gd1983-04-23d1t04.flac
20358ef05ac7e7c3ab33658a48f74ae3 *gd1983-04-23d1t05.flac
ff760b0cb2c8992231dc0d5dd3aa2fff *gd1983-04-23d1t06.flac
bceba15e09f52bc9b45f4d81061256d5 *gd1983-04-23d1t07.flac
4ec2f46be86c1c4d06fb3a706c050b2b *gd1983-04-23d1t08.flac
1e075da21830a80419cd6942dd232423 *gd1983-04-23d1t09.flac
21373c461a86b0795a7b9d93048e4027 *gd1983-04-23d1t10.flac
f5af382500566ac213db1019cdff8ff1 *gd1983-04-23d1t11.flac
43e086d1aca49c4977cc41058fc2fc24 *gd1983-04-23d1t12.flac
0e297b7ced6dfd3a99f172b4366e9182 *gd1983-04-23d2t01.flac
cd8c419eee6dba66c61668d2da9535c0 *gd1983-04-23d2t02.flac
2a18075aeb764a940ba12ae8a82ce327 *gd1983-04-23d2t03.flac
63c21dd8b40f800d3bfd98bc32dbad9f *gd1983-04-23d2t04.flac
c36ca74f9f6a7ba58b156385695c267d *gd1983-04-23d2t05.flac
d9e1d83dbabf9ecb6d47d108592531f8 *gd1983-04-23d3t01.flac
702ed24dbb36bb324131d408858d37cf *gd1983-04-23d3t02.flac
b77a142e2dd505ba9654ed25c9041046 *gd1983-04-23d3t03.flac
82b13f786d729a71a74f68bb09bb9355 *gd1983-04-23d3t04.flac
ed5701354bc080cd8e9724b80ce88032 *gd1983-04-23d3t05.flac
10978c99bb31ee357a90f56bfc1d3ab9 *gd1983-04-23d3t06.flac
e424bba34afc49fb18166b142617cbc6 *gd1983-04-23d3t07.flac

Comments
Add Comment
Other Sources (comments)
FOB-Sennheiser 421> Master... (0) flac16; SBD ->... (1) flac16;... (0) flac16; Nakamichi... (0) flac16; Source: 2... (1) flac24; AUD: 2x... (1) flac16; AUD: 2x... (1) flac16; Set 2... (0) flac24; Set 2... (0) flac24; Updated... (0) flac16; Set 2 only... (1) flac16; source: aud... (0) flac24; source: aud... (0) flac16/44.1 First... (0) flac24/48 First Gen... (0)
Date User Comment