Browse Collections Artists Sources   Search Dates

Add Show    List Management    Help


Grateful Dead 09/18/90
Madison Square Garden, New York, NY
Comments Add Comment    Source Collectors    Add to Collection    Add to Want List    History
Source # 96156 Other Sources
Entered by Matt Vernon
Checksums ffp , flac-md5
Disc Counts 2 / 3
Media Size
Date Circulated
Date Added
12/03/2008
12/01/2008
Source Summary flac16; matrix of DSBD: shnid=79022 and DAUD: shnid=9772 by hansokolow using ProTools 
  Archive
Source Information - Download Text | Download Zip
Grateful Dead
Tuesday, September 18th, 1990
Madison Square Garden
New York, NY

       cd1  -  set 1
1)  Mississippi Half-Step Uptown Toodleoo
2)  Minglewood Blues
3)  Loser
4)  Picasso Moon
5)  Row Jimmy
6)  Desolation Row
7)  To Lay Me Down->
8)  The Promised Land

       cd2  -  set 2
1)  Eyes Of The World->
2)  Estimated Prophet->
3)  Foolish Heart->
4)  Drums->

       cd3
1)  Space->
2)  The Other One->
3)  The Wheel->
4)  Sugar Magnolia
5) (crowd/tuning)
6)    e:  Knockin' On Heaven's Door

-----------------------------------

This is a matrix, done by hansokolow in ProTools, of the following digital sources:

DSBD: shnid=79022
SBD -> Dat (44.1k)

-----------------------------------

DAUD: shnid=9772
Primary Source: DFOB MAD>D>CD
Recorded by Dave Brotman FOB DFC, (Section 2, row 15, seat 1)
Schoeps MK4/CMC3 (ortf/110deg)>Oade PS>Oade Mod. SV255
(MIT reference XLR interconnects).

Tapers became friends with the head security guard and ran a D5 copy for him every nite (a tradition that was apparently carried on in following years by other tapers)

Secondary Source: 20th row FOB B&K4011's> DAT; DAT> SHN via M1> Zoltrix> Cooledit2k> CDWAV> MKW

Secondary Source used to patch two master dat dropouts in Promised Land and two in Eyes.  Each dropout was approx. one second in length. Dropouts patched/crossfaded in soundforge.

-----------------------------------

My Notes:  One of the first shows I made a matrix of, so I don't have notes, but it turned out quite well.

Caveat: I don't take meticulous notes of every splice and adjustment I make, it's already time consuming enough, but I will explain my process.  Every disc I make is seamless for longer media.  I use the most reliable source, usually whichever is digital, if both are the same generally it's the SBD, and the other sources is time shifted to match that.  With analog sources there is always some wavering.  Within reason I try to adjust for the by making small, millisecond cuts, lining up the drum beats.  These are smoothed over and when mixed with another source, undetectable.  There still may be occasional phasing, particularly in the vocals and the cymbals.  Believe me that I do everything I can to minimize problems like that.  That includes cutting out spots of diginoise and blips and things.  Whenever there is something missing from one source but present on the other, I bring up the volume a tad on the source that's left, to minimize the jarring nature of one source dropping out.  When the crowd noise at the start of a set is less than two minutes or so, I don't make a separate crowd track.  I export the final result to aiff files, and then convert those into flacs at the smallest setting, using xACT for Mac, and that also makes then SBE safe.

I hope everyone enjoys the product of my labor, and I'm glad to give something back to the community that has given me and others so much music over the years.  Thanks, brothers and sisters.
-Tano ([email protected])

    length     expanded size    cdr  WAVE problems  fmt   ratio  filename
     9:24.42       99588428 B   ---   --   ---xx  gd90-09-18d1t01.flac
    10:07.55      107204204 B   ---   --   ---xx  gd90-09-18d1t02.flac
     8:32.67       90474428 B   ---   --   ---xx  gd90-09-18d1t03.flac
     9:42.31      102737756 B   ---   --   ---xx  gd90-09-18d1t04.flac
    13:02.20      137991884 B   ---   --   ---xx  gd90-09-18d1t05.flac
    13:46.17      145746428 B   ---   --   ---xx  gd90-09-18d1t06.flac
     9:33.20      101124284 B   ---   --   ---xx  gd90-09-18d1t07.flac
     5:42.60       60469964 B   ---   --   ---xx  gd90-09-18d1t08.flac
    18:01.36      190773116 B   ---   --   ---xx  gd90-09-18d2t01.flac
    12:59.49      137530892 B   ---   --   ---xx  gd90-09-18d2t02.flac
    18:53.40      199955324 B   ---   --   ---xx  gd90-09-18d2t03.flac
    11:11.16      118402076 B   ---   --   ---xx  gd90-09-18d2t04.flac
     7:16.38       76999820 B   ---   --   ---xx  gd90-09-18d3t01.flac
     8:43.56       92388956 B   ---   --   ---xx  gd90-09-18d3t02.flac
     4:26.19       46967132 B   ---   --   ---xx  gd90-09-18d3t03.flac
    10:13.73      108304940 B   ---   --   ---xx  gd90-09-18d3t04.flac
     3:33.32       37648508 B   ---   --   ---xx  gd90-09-18d3t05.flac
     9:32.39      100992572 B   ---   --   ---xx  gd90-09-18d3t06.flac
   184:44.35     1955300712 B                            0.5504  (18 files)
Show Checksums
ffp
gd90-09-18d1t01.flac:0b6e7098a6f74ed8892964f457fa89f6
gd90-09-18d1t02.flac:43c615507dfe7690946be074e195a7eb
gd90-09-18d1t03.flac:e12f0d255582d4ccb4d3a779b330c4fa
gd90-09-18d1t04.flac:125217fc231118916f64d2bd334db395
gd90-09-18d1t05.flac:4eab71ba314de3e5ab45a0461e120cb6
gd90-09-18d1t06.flac:50d461b1b8c8825b447d88e8342fcb28
gd90-09-18d1t07.flac:f752a61a438bb36e69b754f6ea362de1
gd90-09-18d1t08.flac:7f5417a1536ca3f9512b8a1cf2cdf589
gd90-09-18d2t01.flac:6dd535bf9dd536c33ce7755cc5b674e6
gd90-09-18d2t02.flac:819a5f6914330102a6bf453cf4f8b6a1
gd90-09-18d2t03.flac:90b7c40c1dbd1966682314ab09776c3c
gd90-09-18d2t04.flac:901e3099d6234d7c09ea0e478d42915e
gd90-09-18d3t01.flac:fc012912ebe7ae694916b4304a3d74c3
gd90-09-18d3t02.flac:8f3e780a270f090259b454bcfe6a8a5b
gd90-09-18d3t03.flac:2dd82c2b37106b50e118c035baa77c4b
gd90-09-18d3t04.flac:c0841f4055d039af264905de0957d9c8
gd90-09-18d3t05.flac:5e33a22249bd09aae7fbab080fe7d390
gd90-09-18d3t06.flac:765fc1e32b95ba27b69ed331fa3b7d0b
flac-md5
21a9bcf4a72e6b4ade0e5521564dfdac *gd90-09-18d1t01.flac
9b11f3b4dc149a2229ad5e2058a51b9a *gd90-09-18d1t02.flac
1fe82661585bc109cbdc2b542fadc4af *gd90-09-18d1t03.flac
364dde77158425f9fc3622675ebb9355 *gd90-09-18d1t04.flac
79bd705f0d07fb83ea0d0843c452b8ca *gd90-09-18d1t05.flac
f03f6dece7415341313d72ff44913959 *gd90-09-18d1t06.flac
9ff09f7705004b066f934be4c25e7df7 *gd90-09-18d1t07.flac
971b43c2561822dfae96eb81f51675ee *gd90-09-18d1t08.flac
f7129708aa8b8e3804f7e6a432c251c9 *gd90-09-18d2t01.flac
57053d75842805235d2f78f1c46b24e6 *gd90-09-18d2t02.flac
6d09f8fc1654a8fc92d16d523fb650ca *gd90-09-18d2t03.flac
86c0d13017188a0dbe38c5caadbd309b *gd90-09-18d2t04.flac
c6e7f969c3eaae7cca95d47e70748f62 *gd90-09-18d3t01.flac
8f9a81451b720a1887d23ea67da69d5f *gd90-09-18d3t02.flac
92903efe388878447f5abb91db45993e *gd90-09-18d3t03.flac
b9417ff42dfca20829f3225ce1673543 *gd90-09-18d3t04.flac
74efd4f5e8f6590345f90fff63130f68 *gd90-09-18d3t05.flac
e8b9873fb5c1cf3cb7591d02b5b5b2fb *gd90-09-18d3t06.flac

Comments
Add Comment
Other Sources (comments)
DFOB MAD>D>CD Recorded by... (3) SBD>DAT MASTER>DATX2>CD;... (0) Lineage:... (2) flac16; Fix of (1) flac16; Recording... (0) flac16; Recording... (0) flac16; Ambient... (1) flac16; Taper:... (0) flac16; Taper:... (1) flac16; Taper: M.... (0) flac16; Master... (0) flac24; Master... (0) flac16; Matrix by... (0) flac16/48kHz; Rick... (0) flac16/48kHz; Master... (0)
Date User Comment