Browse Collections Artists Sources   Search Dates

Add Show    List Management    Help


Grateful Dead 10/28/77
Soldiers & Sailors Memorial Hall, Kansas City, KS
Comments Add Comment    Source Collectors    Add to Collection    Add to Want List    History
Source # 96159 Other Sources
Entered by dr.unclear
Checksums flac-md5 , ffp
Disc Counts 2 / 3
Media Size
Date Circulated
Date Added
12/02/2008
12/01/2008
Source Summary flac16; Recording Info:SBD -> Master Reel -> PCM -> Dat; Transfer Info:Dat (Sony R500) -> Samplitude Professional v10.1 -> FLAC; All Transfers and Mastering By Charlie Miller 
  Archive
Source Information - Download Text | Download Zip
Grateful Dead - October 28, 1977
Soldier's And Sailors Memorial Hall - Kansas City, MO

Recording Info:
SBD -> Master Reel -> PCM -> Dat

Transfer Info:
Dat (Sony R500) -> Samplitude Professional v10.1 -> FLAC
(3 Discs Audio / 2 Discs FLAC)

All Transfers and Mastering By Charlie Miller
[email protected]
December 1, 2008

Patch Info:
Sony ECM-990 -> Cassette Master -> Reel -> CD supplies:
The Promised Land (0:00 - 0:22)
He's Gone (14:43 - 15:00)
Around And Around (7:45 - 8:49)

Notes:
-- Set 2 is seamless
-- Thanks to David Minches for the patch source
-- Thanks to Joe B. Jones for his help with the patch source pitch correction

Set 1:
d1t01 - The Promised Land
d1t02 - They Love Each Other
d1t03 - Cassidy
d1t04 - Tennessee Jed
d1t05 - Mexicali Blues ->
d1t06 - Big River
d1t07 - Brown Eyed Women
d1t08 - Lazy Lightnin' ->
d1t09 - Supplication
d1t10 - Deal

Set 2:
d2t01 - Samson And Delilah
d2t02 - Candyman
d2t03 - Sunrise
d2t04 - Passenger
d3t01 - He's Gone ->
d3t02 - Drums ->
d3t03 - Not Fade Away ->
d3t04 - Stella Blue ->
d3t05 - Goin' Down The Road Feeling Bad ->
d3t06 - Around And Around

Encore:
d3t07 - Casey Jones


SHNTOOL OUTPUT:
    length     expanded size   cdr  WAVE problems filename
     6:28.14       68476172    ---   --   -----   gd77-10-28d1t01.wav
    10:47.23      114184940    ---   --   -----   gd77-10-28d1t02.wav
     6:49.47       72258188    ---   --   -----   gd77-10-28d1t03.wav
    12:51.22      136056188    ---   --   -----   gd77-10-28d1t04.wav
     3:13.12       34073468    ---   --   -----   gd77-10-28d1t05.wav
     8:07.55       86036204    ---   --   -----   gd77-10-28d1t06.wav
     7:16.41       77006876    ---   --   -----   gd77-10-28d1t07.wav
     3:21.44       35559932    ---   --   -----   gd77-10-28d1t08.wav
     6:38.13       70237820    ---   --   -----   gd77-10-28d1t09.wav
     7:01.28       74330300    ---   --   -----   gd77-10-28d1t10.wav
    11:10.59      118326812    ---   --   -----   gd77-10-28d2t01.wav
     9:02.41       95705276    ---   --   -----   gd77-10-28d2t02.wav
     5:43.46       60613436    ---   --   -----   gd77-10-28d2t03.wav
     7:15.66       76889276    ---   --   -----   gd77-10-28d2t04.wav
    19:47.64      209537372    ---   --   -----   gd77-10-28d3t01.wav
     3:21.51       35576396    ---   --   -----   gd77-10-28d3t02.wav
    13:53.62      147087068    ---   --   -----   gd77-10-28d3t03.wav
    11:29.24      121596092    ---   --   -----   gd77-10-28d3t04.wav
     7:27.42       78949628    ---   --   -----   gd77-10-28d3t05.wav
     9:18.08       98450060    ---   --   -----   gd77-10-28d3t06.wav
     8:37.49       91314092    ---   --   -----   gd77-10-28d3t07.wav
   179:43.61     1902265596 B                     (totals for 21 files)
Show Checksums
flac-md5
d4cd08dd0cc13b5c7d40a01ea20ca372 *gd77-10-28d1t01.flac
6fd7391e0f3fd5aa5b548bae944a100a *gd77-10-28d1t02.flac
60e879274735b1b8168548fb754e5d38 *gd77-10-28d1t03.flac
e62f5b2e906f6307865502bd8a1e3809 *gd77-10-28d1t04.flac
5fb12d6833e835d8209a0ecefe660e40 *gd77-10-28d1t05.flac
d8d3d7f60301dc1dd5319366a8fefc52 *gd77-10-28d1t06.flac
46cb8d4cb8c1aa49259931ddea9488d1 *gd77-10-28d1t07.flac
30be83bd8ec37789d9ff0a0dc4074130 *gd77-10-28d1t08.flac
72119c23e781fdbade2e4810305442bb *gd77-10-28d1t09.flac
cb5954bf2c93d0211bc5900763369a71 *gd77-10-28d1t10.flac
02817f49fadd753ce00537ddf6bffac3 *gd77-10-28d2t01.flac
bbbda54e2865b3ac41ddd8a093d08e69 *gd77-10-28d2t02.flac
ce4c993cc8f8e5cd243aa0481504d90d *gd77-10-28d2t03.flac
4e720ebcae3e9c4533553e09ffc2869e *gd77-10-28d2t04.flac
db736281bd136874b5682eefbe83312c *gd77-10-28d3t01.flac
6e14a103f2e62c8809417934452abbdb *gd77-10-28d3t02.flac
e598f0b88cf47b4fc6b1f6ab56f988b6 *gd77-10-28d3t03.flac
3b58210cd88d768ecf13890e0b68a5bc *gd77-10-28d3t04.flac
18099f710db7c89c5f25c71812284454 *gd77-10-28d3t05.flac
9917d62da2cb12473a4c932e4b9a4397 *gd77-10-28d3t06.flac
4da13d34e2bf1090273dde5906ba0cdb *gd77-10-28d3t07.flac
ffp
gd77-10-28d1t01.flac:3c5ae5ee0a46da712e22476192965736
gd77-10-28d1t02.flac:4b8a00956d6166a54fb1934746ed97db
gd77-10-28d1t03.flac:e3b3d47755d2f45d48b5b0ff29270270
gd77-10-28d1t04.flac:b45430cfbe0fb13e659dd642604ed516
gd77-10-28d1t05.flac:78beb23924aaa293016c30f0eb057314
gd77-10-28d1t06.flac:2c17d3ef3a2ec83c0121a6166ef9596d
gd77-10-28d1t07.flac:71071db6ec8bdcdd197a71723c3fc13d
gd77-10-28d1t08.flac:e5156db4ec2814502032fcb79c52c978
gd77-10-28d1t09.flac:f4926872f415f6e956cfce14a0c898ea
gd77-10-28d1t10.flac:ff7e801e1748bea597b04e81b117d680
gd77-10-28d2t01.flac:950c5262affcb62bcd15c715e3457240
gd77-10-28d2t02.flac:ba65f4704e1418e396aa7c5d95721e67
gd77-10-28d2t03.flac:b6536a3d8351539f6bf1b5ed042004c1
gd77-10-28d2t04.flac:9318cc67793974234df2a120acfe99da
gd77-10-28d3t01.flac:87acfe6496b788bae3f085de94992c35
gd77-10-28d3t02.flac:06349a3ab6cb7f3ce586bb6cd035bedd
gd77-10-28d3t03.flac:055ccc425b98e6fa70585554012e71a3
gd77-10-28d3t04.flac:94b2c17f41334f183259cdf6315ce78a
gd77-10-28d3t05.flac:ef7f8e7aabeb4f7fad3c6dcdea37576c
gd77-10-28d3t06.flac:7c87a765d132a0c76fcd3785df0bce63
gd77-10-28d3t07.flac:22f7eaa237fb36dfa2b491704c02ecbf

Comments
Add Comment
Other Sources (comments)
Betty Board>MR>?>CD; via... (1) flac16; Recording... (0) flac16; Matrix 2... (0) DTS-Audio-CD 5.1... (0)
Date User Comment