Browse Collections Artists Sources   Search Dates

Add Show    List Management    Help


Grateful Dead 12/27/83
San Francisco Civic Auditorium, San Francisco, CA
Comments Add Comment    Source Collectors    Add to Collection    Add to Want List    History
Source # 96167 Other Sources
Entered by dr.unclear
Checksums flac-md5 , ffp
Disc Counts 2 / 3
Media Size
Date Circulated
Date Added
12/02/2008
12/02/2008
Source Summary flac16; Recording Info: SBD -> Cassette Master (Nakamichi 550/Maxell XLII-S90); Transfer Info; Cassette Master (Nakamichi DR-1) -> Sound Devices 744T (24bit/96k) -> Adobe Audition v1.5 -> Samplitude Professional v10.1 -> r8brain PRO v1.5 -> FLAC/16; All Transfers and Mastering By Charlie Miller 
  Archive
Source Information - Download Text | Download Zip
Grateful Dead - December 27, 1983
Civic Auditorium - San Francisco, CA

Recording Info:
SBD -> Cassette Master (Nakamichi 550/Maxell XLII-S90)

Transfer Info:
Cassette Master (Nakamichi DR-1) -> Sound Devices 744T (24bit/96k) ->
Adobe Audition v1.5 -> Samplitude Professional v10.1 -> r8brain PRO v1.5 -> FLAC/16
(3 Discs Audio / 2 Discs FLAC)

All Transfers and Mastering By Charlie Miller
[email protected]
December 2, 2008

Patch Info:
(FOB) Sennheiser 441 -> PCM -> Dat (shnid=17961) supplies:
Cassidy (4:34 - 5:00)
He's Gone (7:05 - 7:15)
Sugar Magnolia (0:24 - 0:30)

Notes:
-- Set 2 is seamless
-- Thanks to Paul Scotton and Joani Walker for the Cassettes.

Set 1:
d1t01 - Tuning
d1t02 - Cold Rain And Snow
d1t03 - C.C. Rider
d1t04 - They Love Each Other
d1t05 - Beat It On Down The Line
d1t06 - Althea
d1t07 - Cassidy
d1t08 - West L.A. Fadeaway
d1t09 - Hell In A Bucket ->
d1t10 - Might As Well

Set 2:
d2t01 - Scarlet Begonias ->
d2t02 - Fire On The Mountain ->
d2t03 - Samson And Delilah
d2t04 - He's Gone ->
d2t05 - Drums ->
d3t01 - Space ->
d3t02 - Throwing Stones ->
d3t03 - Black Peter ->
d3t04 - Sugar Magnolia

Encore:
d3t05 - U.S. Blues


SHNTOOL OUTPUT:
    length     expanded size   cdr  WAVE problems filename
     1:41.63       17964620    ---   --   -----   gd83-12-27d1t01.wav
     8:05.36       85638716    ---   --   -----   gd83-12-27d1t02.wav
     7:43.01       81675596    ---   --   -----   gd83-12-27d1t03.wav
     9:29.51      100491596    ---   --   -----   gd83-12-27d1t04.wav
     4:39.52       49337948    ---   --   -----   gd83-12-27d1t05.wav
     9:16.51       98198396    ---   --   -----   gd83-12-27d1t06.wav
     5:47.35       61293164    ---   --   -----   gd83-12-27d1t07.wav
    10:15.27      108549548    ---   --   -----   gd83-12-27d1t08.wav
     5:50.70       61904684    ---   --   -----   gd83-12-27d1t09.wav
     4:25.12       46774268    ---   --   -----   gd83-12-27d1t10.wav
    16:11.72      171453788    ---   --   -----   gd83-12-27d2t01.wav
    13:44.70      145518284    ---   --   -----   gd83-12-27d2t02.wav
     8:28.36       89695916    ---   --   -----   gd83-12-27d2t03.wav
    12:06.52      128188748    ---   --   -----   gd83-12-27d2t04.wav
     9:25.39       99757772    ---   --   -----   gd83-12-27d2t05.wav
    12:10.70      128936684    ---   --   -----   gd83-12-27d3t01.wav
     8:54.61       94341116    ---   --   -----   gd83-12-27d3t02.wav
     6:59.01       73913996    ---   --   -----   gd83-12-27d3t03.wav
    11:20.39      120043772    ---   --   -----   gd83-12-27d3t04.wav
     5:26.51       57626396    ---   --   -----   gd83-12-27d3t05.wav
   172:04.64     1821305008 B                     (totals for 20 files)
Show Checksums
flac-md5
e64ef80d3b6ad77ceea64ca6354dc49d *gd83-12-27d1t01.flac
579862c566c5ddf675858cd018d7d8c7 *gd83-12-27d1t02.flac
5883184ac1e1a8756d7b0168a398c6ed *gd83-12-27d1t03.flac
b80c8226bb7c178b58495539f9467ef1 *gd83-12-27d1t04.flac
ae25f83afb4f8441a3d7d45b3fdc9dfc *gd83-12-27d1t05.flac
571c561f99fb70b2f21097a3c173f851 *gd83-12-27d1t06.flac
a164654d3bad5e3546772ece331912e3 *gd83-12-27d1t07.flac
152ccb6bb09ea62f8e2ea5431e4275d1 *gd83-12-27d1t08.flac
fcde504a35e8e876286320ea2876408a *gd83-12-27d1t09.flac
e3a6223d6e681eeb02974292dd113c96 *gd83-12-27d1t10.flac
f85353e7c846f79b50f303b6bbfa369d *gd83-12-27d2t01.flac
00903e30acc8da239c5d5bd957ffa9dc *gd83-12-27d2t02.flac
51d7dff937fe6a8f4e332df368364c1a *gd83-12-27d2t03.flac
7d9d1c6777067cedabd77c1a59e4622a *gd83-12-27d2t04.flac
79811033d2b3dd80f36dc3389627a3c0 *gd83-12-27d2t05.flac
4dc3cb983b8a9b0bfea6498109e15f0b *gd83-12-27d3t01.flac
10321ed6242496e826610c91c9587d9a *gd83-12-27d3t02.flac
492186416aa187cc5c085c64d1cccb93 *gd83-12-27d3t03.flac
01415d5dec533fa149a73e47cd357eb7 *gd83-12-27d3t04.flac
0d6325995a4a629c1352dea7260a374f *gd83-12-27d3t05.flac
ffp
gd83-12-27d1t01.flac:bf8d67e86cde69a975e767906bb0acda
gd83-12-27d1t02.flac:59c5eab80e9bd41dc9b8d61012a13ec1
gd83-12-27d1t03.flac:db4f8466bbb06196462f4f22885f0a15
gd83-12-27d1t04.flac:ab1541d3ac609a27d865d87306282934
gd83-12-27d1t05.flac:1fcffd4bed950d87ccfcf403085894a5
gd83-12-27d1t06.flac:94a62149e377417909b97b603857fe4c
gd83-12-27d1t07.flac:6c03fbd3290c73ca4731d26abc1a0e3c
gd83-12-27d1t08.flac:9fcc4da80555d52a430181dab3f5e7bf
gd83-12-27d1t09.flac:53494d3bbca0095ac5aced2d079cc5ed
gd83-12-27d1t10.flac:b648b874080f1d6c75b03854ccd992f5
gd83-12-27d2t01.flac:28653b0d483abf3eb0ff734b6c6bbb11
gd83-12-27d2t02.flac:3b075cccdb5d3590c5984b5c382cbaab
gd83-12-27d2t03.flac:806dc6d61f427f21fcbe530e0b9112d0
gd83-12-27d2t04.flac:0fa018ca983fcc036217eca065999484
gd83-12-27d2t05.flac:ee6c8cf16dd50d5b1f128b52e3ffe804
gd83-12-27d3t01.flac:9eab0649121fb0cffbd2d42a8687edab
gd83-12-27d3t02.flac:ef4b871d7c97b9cfd7c6d750aa642b9d
gd83-12-27d3t03.flac:0cd7d4d3910683f32c1dfd20ff8de921
gd83-12-27d3t04.flac:3a6d3ea1fe4206a9ea63b7454e37b82b
gd83-12-27d3t05.flac:5f22bd8d32690c49f9da00e977f3558b

Comments
Add Comment
Other Sources (comments)
Aud>?>CD>EAC>SHN via Steve... (1) (FOB) Senn 441>PCM>Dat... (0) SBD > MC > C > DAT > CD >... (3) SBD > MC > C > DAT > CD >... (0) flac16; Recording... (2) flac16; Source:... (0) flac16; AUD:... (0) flac16: Recorded by... (0) flac16; Matrix 2... (0) DTS-Audio-CD 5.1... (0) flac16; Master... (0) flac24; Master... (0) flac16; source: aud... (0) flac24; source: aud... (0)
Date User Comment