Browse Collections Artists Sources   Search Dates

Add Show    List Management    Help


Grateful Dead 12/28/83
San Francisco Civic Auditorium, San Francisco, CA
Comments Add Comment    Source Collectors    Add to Collection    Add to Want List    History
Source # 96172 Other Sources
Entered by dr.unclear
Checksums flac-md5 , ffp
Disc Counts 2 / 2
Media Size
Date Circulated
Date Added
12/03/2008
12/03/2008
Source Summary flac16; Recording Info:SBD -> Cassette Master (Nakamichi 550/Maxell XLII-S90); Transfer Info: Cassette Master (Nakamichi DR-1) -> Sound Devices 744T (24bit/96k) -> Adobe Audition v1.5 -> Samplitude Professional v10.1 -> r8brain PRO v1.5 -> FLAC/16; All Transfers and Mastering By Charlie Miller 
  Archive
Source Information - Download Text | Download Zip
Grateful Dead - December 28, 1983
Civic Auditorium - San Francisco, CA

Recording Info:
SBD -> Cassette Master (Nakamichi 550/Maxell XLII-S90)

Transfer Info:
Cassette Master (Nakamichi DR-1) -> Sound Devices 744T (24bit/96k) ->
Adobe Audition v1.5 -> Samplitude Professional v10.1 -> r8brain PRO v1.5 -> FLAC/16
(2 Discs Audio / 2 Discs FLAC)

All Transfers and Mastering By Charlie Miller
[email protected]
December 2, 2008

Patch Info:
(FOB) Sennheiser 441 -> Cassette Master (shnid=23061) supplies:
Bird Song (7:02 - 7:27)
Drums (7:27 - 8:33)

Notes:
-- Disc change is seamless
-- Thanks to Joani Walker and Paul Scotton for the Cassettes
-- Thanks to Joe B. Jones for his help with the pitch correction

Set 1:
d1t01 - Tuning
d1t02 - Feel Like A Stranger
d1t03 - Dire Wolf
d1t04 - Mama Tried ->
d1t05 - Mexicali Blues
d1t06 - Loser
d1t07 - New Minglewood Blues
d1t08 - Bird Song

Set 2:
d1t09 - China Cat Sunflower ->
d1t10 - I Know You Rider
d2t01 - Playing In The Band ->
d2t02 - Drums ->
d2t03 - Space ->
d2t04 - The Wheel ->
d2t05 - Playing Jam ->
d2t06 - The Other One ->
d2t07 - Stella Blue ->
d2t08 - Around And Around
d2t09 - Johnny B. Goode

Encore:
d2t10 - It's All Over Now, Baby Blue


SHNTOOL OUTPUT:
    length     expanded size   cdr  WAVE problems filename
     1:17.00       13582844    ---   --   -----   gd83-12-28d1t01.wav
     8:10.30       86506604    ---   --   -----   gd83-12-28d1t02.wav
     4:03.61       43008716    ---   --   -----   gd83-12-28d1t03.wav
     2:38.14       27904172    ---   --   -----   gd83-12-28d1t04.wav
     5:23.38       57066620    ---   --   -----   gd83-12-28d1t05.wav
     7:47.25       82437644    ---   --   -----   gd83-12-28d1t06.wav
     7:49.64       82882172    ---   --   -----   gd83-12-28d1t07.wav
    12:39.23      133941740    ---   --   -----   gd83-12-28d1t08.wav
     7:10.61       75995516    ---   --   -----   gd83-12-28d1t09.wav
     8:55.72       94543388    ---   --   -----   gd83-12-28d1t10.wav
    16:56.50      179340044    ---   --   -----   gd83-12-28d2t01.wav
     8:37.03       91205900    ---   --   -----   gd83-12-28d2t02.wav
     8:26.38       89347820    ---   --   -----   gd83-12-28d2t03.wav
     5:37.63       59595020    ---   --   -----   gd83-12-28d2t04.wav
     0:50.25        8878844    ---   --   -----   gd83-12-28d2t05.wav
     9:33.35      101159564    ---   --   -----   gd83-12-28d2t06.wav
     8:55.18       94416380    ---   --   -----   gd83-12-28d2t07.wav
     3:46.57       40000508    ---   --   -----   gd83-12-28d2t08.wav
     4:24.66       46724876    ---   --   -----   gd83-12-28d2t09.wav
     6:56.21       73431836    ---   --   -----   gd83-12-28d2t10.wav
   140:01.14     1481970208 B                     (totals for 20 files)
Show Checksums
flac-md5
24e7eeeea5be75a6b64417cd21d5c6d7 *gd83-12-28d1t01.flac
dceabbf2930f3e9d8826dc7c8c146c5b *gd83-12-28d1t02.flac
f83e7333706c5d6f4a86922903e31cb7 *gd83-12-28d1t03.flac
b00dda3d249acfb3f1f1793ad498e944 *gd83-12-28d1t04.flac
95f7aa81646f677eda993a58f5b9c0f4 *gd83-12-28d1t05.flac
d546820e3db1bdb64b20aaf657a3fc66 *gd83-12-28d1t06.flac
3e7049dcfbb7a553cda4ceea1972d313 *gd83-12-28d1t07.flac
d7c59069bc1a214107b8b8386d2943d0 *gd83-12-28d1t08.flac
edff465af5981d26af44ae0c72ab1ca1 *gd83-12-28d1t09.flac
1e801bf6a15f7fa850c96aa2957e5503 *gd83-12-28d1t10.flac
3496ef47943bed9d80f539b31dc75406 *gd83-12-28d2t01.flac
aa4d46fcbf10651798147a5df7f67a7e *gd83-12-28d2t02.flac
5d8975ef9b2fa27dfe66292c0bf225c7 *gd83-12-28d2t03.flac
96f14aa8b9c1ddfe6967a4b51c023fd6 *gd83-12-28d2t04.flac
8036cd1c6a991ebb79ee73c14298bc4d *gd83-12-28d2t05.flac
e1cc6e7d1c623c9b017fcd9a05c96d97 *gd83-12-28d2t06.flac
2323a336fd62d09b0a213589d69a09b2 *gd83-12-28d2t07.flac
5f0c87fecd86bc2db74b5e2abd701ea1 *gd83-12-28d2t08.flac
6dccab01c06fe28432636c465e4cda84 *gd83-12-28d2t09.flac
034210e516a75e34e832e63b23db8fb2 *gd83-12-28d2t10.flac
ffp
gd83-12-28d1t01.flac:b2f49299abda06e9824fb303ec856be9
gd83-12-28d1t02.flac:9adefa1d39b80b8b751882eb79c3e07e
gd83-12-28d1t03.flac:2752fc76f2bb3b7d30a70bca65410fa9
gd83-12-28d1t04.flac:9c14fc44ee6f18db4bb5ac35b9badd19
gd83-12-28d1t05.flac:7b365c3f339d536ff49e7c02e22c6420
gd83-12-28d1t06.flac:2c41e94f3c11b0ddd334cafc87c06c4e
gd83-12-28d1t07.flac:e2e807bb1b122d2a1996d6312ef58fb3
gd83-12-28d1t08.flac:00f288e7cba66c8f7e66ee155c38ab49
gd83-12-28d1t09.flac:91aa615071dd255cda4167c7dd4a5a54
gd83-12-28d1t10.flac:59af6df8b0f996ebd5d24f40bcf6b294
gd83-12-28d2t01.flac:9738e6e2059e64ff8c14ac6698f1abe4
gd83-12-28d2t02.flac:43d0aaf6d80fd98a2616dc2171e52102
gd83-12-28d2t03.flac:09e57fbde5d7d08bbb56f872d934b95b
gd83-12-28d2t04.flac:5221561c5d786153e144046b41bca58c
gd83-12-28d2t05.flac:222b926bd41d1e34830d4f570a9b1c61
gd83-12-28d2t06.flac:4042248f6f52c452081ef731097537b3
gd83-12-28d2t07.flac:b3217c53aa57171577d82c51723ffe30
gd83-12-28d2t08.flac:9ca218a1fb97c4217bd54e2dbf1e728f
gd83-12-28d2t09.flac:aeaef1f96183430c22b3bb95fb4ed92a
gd83-12-28d2t10.flac:4cc7e302300ca72ea3daa048f31a4cbe

Comments
Add Comment
Other Sources (comments)
SBD>MC>C>DAT>CDR; via Paul... (0) Source: FOB AUD -- Senn.... (1) flac16; Recording... (0) flac16; Source:... (0) flac24; FOB AUD:... (0) flac16; FOB AUD:... (0) flac16:Recorded by... (0) flac16; Matrix 3... (0) flac16; Master... (0) flac24; Master... (0) flac16; source: aud... (0) flac24; source: aud... (0)
Date User Comment