Browse Collections Artists Sources   Search Dates

Add Show    List Management    Help


Grateful Dead 12/30/83
San Francisco Civic Auditorium, San Francisco, CA
Comments Add Comment    Source Collectors    Add to Collection    Add to Want List    History
Source # 96181 Other Sources
Entered by dr.unclear
Checksums ffp , flac-md5
Disc Counts 2 / 3
Media Size
Date Circulated
Date Added
12/03/2008
12/03/2008
Source Summary flac16; Recording Info: SBD -> Cassette Master (Nakamichi 550/Maxell XLII-S90) Transfer Info: Cassette Master (Nakamichi DR-1) -> Sound Devices 744T (24bit/96k) -> Samplitude Professional v10.1 -> Adobe Audition v1.5 -> FLAC/16; All Transfers and Mastering By Charlie Miller 
  Archive
Source Information - Download Text | Download Zip
Grateful Dead - December 30, 1983
Civic Auditorium - San Francisco, CA

Recording Info:
SBD -> Cassette Master (Nakamichi 550/Maxell XLII-S90)

Transfer Info:
Cassette Master (Nakamichi DR-1) -> Sound Devices 744T (24bit/96k) ->
Samplitude Professional v10.1 -> Adobe Audition v1.5 -> FLAC/16
(3 Discs Audio / 2 Discs FLAC)

All Transfers and Mastering By Charlie Miller
[email protected]
December 2, 2008

Notes:
-- Encore on end of 1st Set to fit show onto 2 Discs
-- Encore can be re-joined with Set 2 seamlessly
-- Thanks to Joani Walker and Paul Scotton for the Cassettes
-- Thanks to Joe B. Jones for his help with the pitch correction

Set 1:
d1t01 - Bertha ->
d1t02 - Greatest Story Ever Told
d1t03 - Friend Of The Devil
d1t04 - Me And My Uncle ->
d1t05 - Big River
d1t06 - Ramble On Rose
d1t07 - Little Red Rooster
d1t08 - Brown Eyed Women ->
d1t09 - Looks Like Rain ->
d1t10 - Deal

Set 2:
d2t01 - Shakedown Street
d2t02 - Man Smart (Woman Smarter)
d2t03 - Terrapin Station ->
d2t04 - Drums ->
d2t05 - Space ->
d2t06 - Mind Left Body Jam ->
d2t07 - Truckin' ->
d2t08 - Wharf Rat ->
d2t09 - Good Lovin'

Encore:
d1t11 - Keep Your Day Job


SHNTOOL OUTPUT:
    length     expanded size   cdr  WAVE problems filename
     7:14.34       76637612    ---   --   -----   gd83-12-30d1t01.wav
     3:52.40       41018924    ---   --   -----   gd83-12-30d1t02.wav
     9:36.32      101681708    ---   --   -----   gd83-12-30d1t03.wav
     2:56.39       31138172    ---   --   -----   gd83-12-30d1t04.wav
     5:34.61       59061116    ---   --   -----   gd83-12-30d1t05.wav
     7:03.18       74659580    ---   --   -----   gd83-12-30d1t06.wav
     9:42.64      102815372    ---   --   -----   gd83-12-30d1t07.wav
     5:07.23       54208940    ---   --   -----   gd83-12-30d1t08.wav
     7:26.04       78683852    ---   --   -----   gd83-12-30d1t09.wav
     7:34.35       80167964    ---   --   -----   gd83-12-30d1t10.wav
     4:24.60       46710764    ---   --   -----   gd83-12-30d1t11.wav
    15:08.48      160284140    ---   --   -----   gd83-12-30d2t01.wav
     8:12.09       86810012    ---   --   -----   gd83-12-30d2t02.wav
    12:04.16      127751276    ---   --   -----   gd83-12-30d2t03.wav
     8:01.45       84954284    ---   --   -----   gd83-12-30d2t04.wav
     4:19.70       45852284    ---   --   -----   gd83-12-30d2t05.wav
     4:42.05       49756604    ---   --   -----   gd83-12-30d2t06.wav
     7:10.57       75986108    ---   --   -----   gd83-12-30d2t07.wav
    10:04.01      106547996    ---   --   -----   gd83-12-30d2t08.wav
     8:11.58       86748860    ---   --   -----   gd83-12-30d2t09.wav
   148:28.44     1571475568 B                     (totals for 20 files)
Show Checksums
ffp
gd83-12-30d1t01.flac:7370ce06e0bfaabe20f0d7f75f8ebd29
gd83-12-30d1t02.flac:ab42bcd51d8aebcb3a3d139243ff776c
gd83-12-30d1t03.flac:6274fe0ebea98033e668570be81b6764
gd83-12-30d1t04.flac:ad3a023e54157551de07c9edab209dc1
gd83-12-30d1t05.flac:f9027ccc1530f581addf0a84fac06a81
gd83-12-30d1t06.flac:79d426a7a92f9064a82b5e8a3cb75b3a
gd83-12-30d1t07.flac:150249308f3a6ffb97eaf854dd655dbc
gd83-12-30d1t08.flac:8e4b4bc2484d7f89a47926b35b305edf
gd83-12-30d1t09.flac:c877482e793ec3123ba524f579b724e7
gd83-12-30d1t10.flac:691c94a95bcbd0f71cc8a30f05da09f0
gd83-12-30d1t11.flac:d7eb45dd6d55e9cbfee5fd619fa8c612
gd83-12-30d2t01.flac:6844969500ab89f473661b97485c037c
gd83-12-30d2t02.flac:37cd4e6ef1ea93f8fc63a11b5fa602c5
gd83-12-30d2t03.flac:425d06a014d98f74ffe0a1ea7b4ed021
gd83-12-30d2t04.flac:c56f2d0e7f0e6f842bb4811162cfab02
gd83-12-30d2t05.flac:6f4ca1ffc138ce7d28650eaeaadef921
gd83-12-30d2t06.flac:5486dfb9b6f6aebd954149c94834f49a
gd83-12-30d2t07.flac:7bb1842005935126148e3abd69693c46
gd83-12-30d2t08.flac:d5883c62a1b06c2b46a3e331a5ae6a4f
gd83-12-30d2t09.flac:ba3235bb7a1628afa12a94a3eaf29dd8
flac-md5
aa4318f28e080a5e50d8ab63ca1d0f48 *gd83-12-30d1t01.flac
8c27f74cc92656b06463df5dafe1cbbe *gd83-12-30d1t02.flac
59a22aa07b45a06bb5904383c1f80a48 *gd83-12-30d1t03.flac
b20d5b107041ce29083ecd36fda5be0f *gd83-12-30d1t04.flac
0009e023eee2a74db770d7c9e25e8f36 *gd83-12-30d1t05.flac
032fdf56a04b629e3e80b5f6453eb7e9 *gd83-12-30d1t06.flac
73f362c7a93f95d9ec76ec2fc7c894ef *gd83-12-30d1t07.flac
5d012d4c4eebd4a8bd7fe4a7be670be1 *gd83-12-30d1t08.flac
31d951bf44f0eec6512a2786d01151e5 *gd83-12-30d1t09.flac
de46d508c7a26e528169b4c3fa32c0d6 *gd83-12-30d1t10.flac
e9754f8560c7bf7147f5b768c3b10d40 *gd83-12-30d1t11.flac
283886d00056eec5caade7af67945c92 *gd83-12-30d2t01.flac
9256f9a7028f386b9f7916c56986393b *gd83-12-30d2t02.flac
8f837665b5c716cc4ae59c761301e7a1 *gd83-12-30d2t03.flac
24aefe3ab6038159ca6cdf0bbf9a50f0 *gd83-12-30d2t04.flac
f4b1142e3673c6298bbf394fdf072da5 *gd83-12-30d2t05.flac
e60c3ca06a60836179b362916cd2ea31 *gd83-12-30d2t06.flac
0969a470a869d1d6dfa95f9288f5f1d0 *gd83-12-30d2t07.flac
4deb2d01ae0a6fc429023b9fba9e1b50 *gd83-12-30d2t08.flac
6ed3fe955bf8d87ee29e727ccc8c5fb1 *gd83-12-30d2t09.flac

Comments
Add Comment
Other Sources (comments)
SBD>MC>DAT>CDR; via Paul B;... (0) flac16; Source:... (0) flac16; SBD ->... (0) flac16; Nakamichi... (0) flac24; AUD:... (0) flac16; AUD:... (0) flac16; Source: 2... (0) flac16; Master... (0) flac24; Master... (0) flac16; source: aud... (0) flac24; source: aud... (0)
Date User Comment