Browse Collections Artists Sources   Search Dates

Add Show    List Management    Help


Grateful Dead 12/31/83
San Francisco Civic Auditorium, San Francisco, CA
Comments Add Comment    Source Collectors    Add to Collection    Add to Want List    History
Source # 96185 Other Sources
Entered by dr.unclear
Checksums ffp , flac-md5
Disc Counts 2 / 3
Media Size
Date Circulated
Date Added
12/03/2008
12/03/2008
Source Summary flac16; Recording Info: SBD -> Cassette Master (Nakamichi 550/Maxell XLII-S90) Transfer Info: Cassette Master (Nakamichi DR-1) -> Sound Devices 744T (24bit/96k) -> Samplitude Professional v10.1 -> Adobe Audition v1.5 -> FLAC/16; All Transfers and Mastering By Charlie Miller 
  Archive
Source Information - Download Text | Download Zip
Grateful Dead - December 31, 1983
Civic Auditorium - San Francisco, CA

Recording Info:
SBD -> Cassette Master (Nakamichi 550/Maxell XLII-S90)

Transfer Info:
Cassette Master (Nakamichi DR-1) -> Sound Devices 744T (24bit/96k) ->
Samplitude Professional v10.1 -> Adobe Audition v1.5 -> FLAC/16
(3 Discs Audio / 2 Discs FLAC)

All Transfers and Mastering By Charlie Miller
[email protected]
December 2, 2008

Patch Info:
FM -> ? -> Dat (shnid=13963) supplies:
Eyes Of The World (10:22  -10:44)
Not Fade Away (8:35 - 8:42)

Notes:
-- Seamless transition between Discs 1 and 2
-- Set 3 with Rick Danko and Maria Muldaur
-- Thanks to Joani Walker and Paul Scotton for the Cassettes
-- Thanks to Joe B. Jones for his help with the pitch correction

Set 1:
d1t01 - Tuning
d1t02 - Jack Straw
d1t03 - Peggy-O
d1t04 - Minglewood Blues
d1t05 - Candyman
d1t06 - My Brother Esau
d1t07 - Tennesee Jed
d1t08 - Hell In A Bucket ->
d1t09 - Don't Ease Me In

Set 2:
d1t10 - Tsaichovsky's 1812 Overture ->
d1t11 - Sugar Magnolia ->
d1t12 - Touch Of Grey
d2t01 - Estimated Prophet ->
d2t02 - Eyes Of The World ->
d2t03 - Drums ->
d2t04 - Space ->
d2t05 - Throwing Stones ->
d2t06 - Not Fade Away
d2t07 - Brokedown Palace

Set 3:
d3t01 - Big Boss Man ->
d3t02 - Iko Iko
d3t03 - In The Midnight Hour
d3t04 - Goodnite Irene


SHNTOOL OUTPUT:
    length     expanded size   cdr  WAVE problems filename
     1:07.08       11837660    ---   --   -----   gd83-12-31d1t01.wav
     6:32.54       69275852    ---   --   -----   gd83-12-31d1t02.wav
     8:28.13       89641820    ---   --   -----   gd83-12-31d1t03.wav
     9:38.01      101961596    ---   --   -----   gd83-12-31d1t04.wav
     7:16.19       76955132    ---   --   -----   gd83-12-31d1t05.wav
     5:45.51       60977996    ---   --   -----   gd83-12-31d1t06.wav
     9:11.62       97342268    ---   --   -----   gd83-12-31d1t07.wav
     5:51.73       62088140    ---   --   -----   gd83-12-31d1t08.wav
     3:28.57       36825308    ---   --   -----   gd83-12-31d1t09.wav
     3:54.72       41446988    ---   --   -----   gd83-12-31d1t10.wav
     6:02.33       63934460    ---   --   -----   gd83-12-31d1t11.wav
     8:11.16       86650076    ---   --   -----   gd83-12-31d1t12.wav
    13:48.37      146146268    ---   --   -----   gd83-12-31d2t01.wav
    11:22.36      120389516    ---   --   -----   gd83-12-31d2t02.wav
    10:00.52      105962348    ---   --   -----   gd83-12-31d2t03.wav
    12:43.69      134755532    ---   --   -----   gd83-12-31d2t04.wav
     7:56.48       84079340    ---   --   -----   gd83-12-31d2t05.wav
    12:07.08      128261660    ---   --   -----   gd83-12-31d2t06.wav
     5:35.43       59195180    ---   --   -----   gd83-12-31d2t07.wav
     5:12.53       55161500    ---   --   -----   gd83-12-31d3t01.wav
     6:36.12       69882668    ---   --   -----   gd83-12-31d3t02.wav
     5:43.43       60606380    ---   --   -----   gd83-12-31d3t03.wav
     6:42.22       70964588    ---   --   -----   gd83-12-31d3t04.wav
   173:18.57     1834342276 B                     (totals for 23 files)
Show Checksums
ffp
gd83-12-31d1t01.flac:e4f5c8df74b295ea23b84b2f23b185cf
gd83-12-31d1t02.flac:501a9976dcf001470fc762fe955fb649
gd83-12-31d1t03.flac:256b12c09239edd49c4bed4b65c89253
gd83-12-31d1t04.flac:8b3d822ac777fe3e3dbf5d5ed3da94fe
gd83-12-31d1t05.flac:2d4a4bdf1dce36a5252b1e2920d1767e
gd83-12-31d1t06.flac:31fb6e687a600be2ca769fa940d10de4
gd83-12-31d1t07.flac:dd8d86462de4b377dfb5a605e17e61d3
gd83-12-31d1t08.flac:3272c5faa85d6cd8ee703ce18904f3e0
gd83-12-31d1t09.flac:90571e96434836d485f3ba108f8ea7d2
gd83-12-31d1t10.flac:977a2cc66ada0ffca82576651a42b294
gd83-12-31d1t11.flac:aed3ec1d1a83797973b93dca896ffc70
gd83-12-31d1t12.flac:fc797c35858bd46235b773beab52d903
gd83-12-31d2t01.flac:0a21832565cf438e65d02a017b409521
gd83-12-31d2t02.flac:245199c235535b07990f1b087ae88a63
gd83-12-31d2t03.flac:f3b0e103daee45f40e819f6eba980647
gd83-12-31d2t04.flac:292a6b156d8bfb347a80b3531c53bf35
gd83-12-31d2t05.flac:03ab33e4c719cc4662f760a188bf9160
gd83-12-31d2t06.flac:11b08a4b28eb9cf31479e3bf5e8e42bb
gd83-12-31d2t07.flac:cfe20b31526d2d47a662a5406afdfe6c
gd83-12-31d3t01.flac:8dcc12f8eaad59a6c28c42c2ec77b114
gd83-12-31d3t02.flac:898f3c169cb8312574392390275cf22f
gd83-12-31d3t03.flac:f0c7912eaedf38d1555446e92e6e220f
gd83-12-31d3t04.flac:054cdaf05bacf68492aebf11a256da72
flac-md5
5b706414957e56aa27b1d47d6354582c *gd83-12-31d1t01.flac
576175fbca6adc986914f79aa786bd11 *gd83-12-31d1t02.flac
10b57fda0d99b3940e0446c2882a5cd8 *gd83-12-31d1t03.flac
b23216ae264ddf5f0c2883b017c4b2f1 *gd83-12-31d1t04.flac
4ef39a16de84956848d66d2aa0564d85 *gd83-12-31d1t05.flac
62c28613775961297f967475f9ff0201 *gd83-12-31d1t06.flac
05111fdf5be9eee0404c304e339c5372 *gd83-12-31d1t07.flac
f22fc80b5119ea68a77ef7dbbb20619f *gd83-12-31d1t08.flac
7a13a2af557c59963cff49b6b8781eaf *gd83-12-31d1t09.flac
fa6748dd95cbbea642ef64852c73fc8d *gd83-12-31d1t10.flac
0dd77295ddc25e429b5f541df29d25f5 *gd83-12-31d1t11.flac
ec51d3a17190cac62cdd0a82b19d4a16 *gd83-12-31d1t12.flac
52886902faaba7be356273dac5cafa87 *gd83-12-31d2t01.flac
0f4475421be663fbc11492ea5dbc640f *gd83-12-31d2t02.flac
01dd3f7ce1f0da22cca151c6acc156fd *gd83-12-31d2t03.flac
58d1711502c9ec8537745fb977b554c9 *gd83-12-31d2t04.flac
e6fbf28d12eb343abb29909862d6d3b5 *gd83-12-31d2t05.flac
f4f92101c291ced00ed2377194734dec *gd83-12-31d2t06.flac
49c123182dabbd589d42222f1ba0ca65 *gd83-12-31d2t07.flac
d77f86c85b0bf02b17f69d4cc292dab6 *gd83-12-31d3t01.flac
0951e08ecb547fa261ffaae0a0b00143 *gd83-12-31d3t02.flac
ef34a2e8634cc4b001339d4edc2d1dc4 *gd83-12-31d3t03.flac
5f7216ea6e592da3079970c60d71558d *gd83-12-31d3t04.flac

Comments
Add Comment
Other Sources (comments)
sbd> mr> dats> wav> shn... (0) SBD -> Rm -> Dat -> M-Audio... (0) (Bertha Remaster)... (0) 3 Beyer M160 FOB> Sony... (0) flac16; SBD ->... (4) flac16; FOB... (0) flac16; Source:... (0) flac16; Set 3 only -... (0) flac16; Source: 2... (1) flac16; Matrix 3... (0) flac16; Master... (0) flac24; Master... (0) flac16; source: aud... (0) flac24; source: aud... (0)
Date User Comment