Browse Collections Artists Sources   Search Dates

Add Show    List Management    Help


Garcia 02/22/80
The Barn, Rutgers University, New Brunswick, NJ
Comments Add Comment    Source Collectors    Add to Collection    Add to Want List    History
Source # 96312 Other Sources
Entered by Joe Jupille
Checksums ffp
Disc Counts 2 / 3
Media Size
Date Circulated
Date Added
12/10/2008
12/10/2008
Source Summary JGB, Flac16: 2 x Nakamichi CM700 => Sony TC-D5M >> MAC >> Nakamichi DR-1 => Grace Design Lunatec V3 >> Korg MR-1000 >> DSF [1-bit 5 -6448 MHz Stereo] >> Korg MR-1000 => Korg AudioGate >> WAV [24/96]MOTB0083 
Source Information - Download Text | Download Zip
MOTB Release: 0083 16/44.1
Release Date: 2008-11-30
Band: Jerry Garcia
Date: 1980-02-22 (Friday)
Venue: The Barn, Rutgers University
Location: New Brunswick, NJ
Analog Audience Source: FOB Master Cassettes (MAC)
Medium Stock Brands: MAC = 2 x Maxell XLII C90
Analog Lineage: 2 x Nakamichi CM700 => Sony TC-D5M >> MAC
Analog Sound Preservation: MAC >> Nakamichi DR-1 => Grace Design Lunatec V3 >> Korg MR-1000 >> DSF [1-bit 5 -6448 MHz Stereo] >> Korg MR-1000 => Korg AudioGate >> WAV [24/96]
Taped By: Barry Glassberg
Transfer By: Adam Egert
Mastering By: Adam Egert

Set 1
d1t01 - Crowd
d2t02 - It Takes A Lot To Laugh It Takes A Train To Cry
d1t03 - Crowd
d1t04 - They Love Each Other
d1t05 - Crowd
d1t06 - Let It Rock
d1t07 - Simple Twist Of Fate
d1t08 - Crowd
d1t09 - That's Alright Mama


Set 2
d2t01 - Sugaree
d2t02 - Crowd
d2t03 - I'll Take A Melody
d2t04 - That's What Love Will Make You Do
d3t01 - Friend Of The Devil
d3t02 - How Sweet It Is To Be Loved By You >
d3t03 - Midnight Moonlight

Encore:
d3t04 - When I Paint My Masterpiece

Notes:
This tape is the Kill. Thanks Barry! Editing this was real easy. The slight hiss is in the master with Dolby decoded it is unobtrusive and was left in as the highs on this tape are clear and perfect. No need to mess that up. Very slight gain increase to approach Red Book CD levels
Red Book CD levels

shntool
    length    expanded size    cdr  WAVE problems  fmt  ratio  filename
    1:48.38      19140620 B  ---  --  ---xx  flac  0.4290  jgb1980-02-22.fob.glassberg.motb.d1t01.flac
    10:01.02      106021148 B  ---  --  ---xx  flac  0.5680  jgb1980-02-22.fob.glassberg.motb.d1t02.flac
    1:10.18      12390380 B  ---  --  ---xx  flac  0.4817  jgb1980-02-22.fob.glassberg.motb.d1t03.flac
    11:18.23      119653340 B  ---  --  ---xx  flac  0.5853  jgb1980-02-22.fob.glassberg.motb.d1t04.flac
    1:26.21      15219836 B  ---  --  ---xx  flac  0.4721  jgb1980-02-22.fob.glassberg.motb.d1t05.flac
    10:17.14      108871772 B  ---  --  ---xx  flac  0.6028  jgb1980-02-22.fob.glassberg.motb.d1t06.flac
    16:31.17      174852428 B  ---  --  ---xx  flac  0.5326  jgb1980-02-22.fob.glassberg.motb.d1t07.flac
    1:02.09      10958012 B  ---  --  ---xx  flac  0.4747  jgb1980-02-22.fob.glassberg.motb.d1t08.flac
    9:10.05      97031804 B  ---  --  ---xx  flac  0.6030  jgb1980-02-22.fob.glassberg.motb.d1t09.flac
    17:58.46      190267436 B  ---  --  ---xx  flac  0.5815  jgb1980-02-22.fob.glassberg.motb.d2t01.flac
    1:05.66      11621276 B  ---  --  ---xx  flac  0.4998  jgb1980-02-22.fob.glassberg.motb.d2t02.flac
    15:06.69      159980732 B  ---  --  ---xx  flac  0.5494  jgb1980-02-22.fob.glassberg.motb.d2t03.flac
    9:50.68      104235980 B  ---  --  ---xx  flac  0.5813  jgb1980-02-22.fob.glassberg.motb.d2t04.flac
    10:21.30      109615004 B  ---  --  ---xx  flac  0.5327  jgb1980-02-22.fob.glassberg.motb.d3t01.flac
    8:54.65      94350524 B  ---  --  ---xx  flac  0.5529  jgb1980-02-22.fob.glassberg.motb.d3t02.flac
    8:08.48      86196140 B  ---  --  ---xx  flac  0.6023  jgb1980-02-22.fob.glassberg.motb.d3t03.flac
    10:23.52      110019548 B  ---  --  ---xx  flac  0.5229  jgb1980-02-22.fob.glassberg.motb.d3t04.flac
  144:35.66    1530425980 B                            0.5613  (17 files)
Show Checksums
ffp
jgb1980-02-22.fob.glassberg.motb.d1t01.flac:4e891f9f293ddc6f6909fcfddf532229
jgb1980-02-22.fob.glassberg.motb.d1t02.flac:00507e8c0d4d033987855fcc4534af9b
jgb1980-02-22.fob.glassberg.motb.d1t03.flac:a5aaf7e02ab777620743094171ae7970
jgb1980-02-22.fob.glassberg.motb.d1t04.flac:5471c9f15e129d7dc3cfdf160940c5eb
jgb1980-02-22.fob.glassberg.motb.d1t05.flac:67d4a8043a2466affafa9936d1f9bc79
jgb1980-02-22.fob.glassberg.motb.d1t06.flac:9fef5a9c9eec353567c7f10398ca6e45
jgb1980-02-22.fob.glassberg.motb.d1t07.flac:cc66f04d35dbad64fead92a9e8075387
jgb1980-02-22.fob.glassberg.motb.d1t08.flac:f530451a2e6f36ee3719f051cd5d11d5
jgb1980-02-22.fob.glassberg.motb.d1t09.flac:04380ad4f96382f48696503bbea0702b
jgb1980-02-22.fob.glassberg.motb.d2t01.flac:862a45d28ece0f9b33ce52b9d5c86132
jgb1980-02-22.fob.glassberg.motb.d2t02.flac:781b64a4bf55f03e71d4adfb407a55e7
jgb1980-02-22.fob.glassberg.motb.d2t03.flac:d259f9fe5e7ee4fb21b1b3e24cf26ff3
jgb1980-02-22.fob.glassberg.motb.d2t04.flac:6b9d562363327c7ee7e824feb7346c18
jgb1980-02-22.fob.glassberg.motb.d3t01.flac:bc653acd545b260e05e51cfb182f1a84
jgb1980-02-22.fob.glassberg.motb.d3t02.flac:1e2c5e4a32663f8e10f1582ead53477f
jgb1980-02-22.fob.glassberg.motb.d3t03.flac:a759ba005d2ae9583d62d9fdc87dc6b7
jgb1980-02-22.fob.glassberg.motb.d3t04.flac:8afbdfd660e4fa22bd0c4e6dee6fb21c

Comments
Add Comment
Other Sources (comments)
Jerry Garcia Band:Nak 700's... (1) Jerry Garcia Band: MAC... (1) JGB, Flac24: 2 x... (2)
Date User Comment