Browse Collections Artists Sources   Search Dates

Add Show    List Management    Help


Zero 11/11/95
Palookaville, Santa Cruz, CA
Comments Add Comment    Source Collectors    Add to Collection    Add to Want List    History
Source # 96340 Other Sources
Entered by skbnut
Checksums ffp , md5
Disc Counts 2 / 2
Media Size
Date Circulated
Date Added

12/11/2008
Source Summary flac16;Recording Info:(FOB) Nakamichi 700/CP1 -> Dat (Sony D3/48k); Transfer Info:Dat (Sony R500) -> Sound Devices 744T -> Samplitude Professional v10.1 -> FLAC; Recorded by Robert Wagner (Dr. Bob); All Transfers and Mastering By Charlie Miller  
Source Information - Download Text | Download Zip
Zero - November 11, 1995
Palookaville - Santa Cruz, CA

Recording Info:
(FOB) Nakamichi 700/CP1 -> Dat (Sony D3/48k)

Transfer Info:
Dat (Sony R500) -> Sound Devices 744T -> Samplitude Professional v10.1 -> FLAC
(2 Discs Audio / 2 Discs FLAC)

All Transfers and Mastering By Charlie Miller
[email protected]
December 11, 2008

Notes:
-- Recorded by Robert Wagner (Dr. Bob)
-- Thanks to Bob for lending me his master Dat

Set 1:
d1t01 - Introduction
d1t02 - Tangled Hangers
d1t03 - Catalina
d1t04 - Highway 61 Revisited
d1t05 - Rigor Mortis
d1t06 - Mercury Blues

Set 2:
d2t01 - Tuning
d2t02 - End Of The World Blues
d2t03 - La Fiesta
d2t04 - The Shape I'm In
d2t05 - Horses
d2t06 - Gregg's Eggs

Encore:
d2t07 - Chance In A Million


SHNTOOL OUTPUT:
    length     expanded size   cdr  WAVE problems filename
     2:26.25       25813244    ---   --   -----   zero1995-11-11d1t01.wav
    14:18.60      151492364    ---   --   -----   zero1995-11-11d1t02.wav
     9:20.00       98784044    ---   --   -----   zero1995-11-11d1t03.wav
    10:46.05      113966204    ---   --   -----   zero1995-11-11d1t04.wav
     9:55.45      105063884    ---   --   -----   zero1995-11-11d1t05.wav
     7:55.34       83870012    ---   --   -----   zero1995-11-11d1t06.wav
     2:36.30       27589004    ---   --   -----   zero1995-11-11d2t01.wav
    12:19.17      130399628    ---   --   -----   zero1995-11-11d2t02.wav
     9:13.30       97619804    ---   --   -----   zero1995-11-11d2t03.wav
     9:22.30       99207404    ---   --   -----   zero1995-11-11d2t04.wav
     8:54.19       94242332    ---   --   -----   zero1995-11-11d2t05.wav
    22:37.61      239518316    ---   --   -----   zero1995-11-11d2t06.wav
     8:13.39       87056972    ---   --   -----   zero1995-11-11d2t07.wav
   127:59.20     1354623212 B                     (totals for 13 files)
Show Checksums
ffp
zero1995-11-11d1t01.flac:b2c689de3995aa41d578011c3c9e88ac
zero1995-11-11d1t02.flac:7d7927d4f10c2cf650550bc4ab08a3c4
zero1995-11-11d1t03.flac:ff05b2cb2772a83e6478eb60452a4f8e
zero1995-11-11d1t04.flac:3f552549762e0309544da5f98e2682ea
zero1995-11-11d1t05.flac:5e57ed3ed1c6009120462e1140b39027
zero1995-11-11d1t06.flac:c5e7b3d2d925318cd64e78c1ea84839b
zero1995-11-11d2t01.flac:c3805189b1150b0fa6cc03124b3d8eb9
zero1995-11-11d2t02.flac:cbff4c9e1944e7d43fa978fabf62361e
zero1995-11-11d2t03.flac:59e5e7aa4a55dab9bdf8cf199d4848af
zero1995-11-11d2t04.flac:b6d3c4854928580fee603fd5db2969c1
zero1995-11-11d2t05.flac:25b47ed287c905a18ca1733c854d947d
zero1995-11-11d2t06.flac:669fa385e27dcfe46876041394f316cf
zero1995-11-11d2t07.flac:de43ea76bac0c3567f3d82676316fd0d
md5
b46b25b8c87f31624e95498ae22aa214 *zero1995-11-11d1t01.flac
d9a303d013979d3956e28b230637e884 *zero1995-11-11d1t02.flac
2af4f5c8f82e67fab01cffb920417c92 *zero1995-11-11d1t03.flac
8501e0f92f4e612a938ba3a27e50fb48 *zero1995-11-11d1t04.flac
5175419e52f1302794638f953f929993 *zero1995-11-11d1t05.flac
83f588427b0a275eb2cd1b234261d75d *zero1995-11-11d1t06.flac
49f02245919328b71adfbad8a49ab2cf *zero1995-11-11d2t01.flac
704b1cc1cdb4a511c5a1b48c26df17c1 *zero1995-11-11d2t02.flac
3c16dbd9db00a5e4ca843c088e0cf555 *zero1995-11-11d2t03.flac
b56354947b275d380430e624202a2965 *zero1995-11-11d2t04.flac
39f8c730f03660dea92c22c1591f6375 *zero1995-11-11d2t05.flac
a94c3bb2027199d1e708a7ec5cbb09eb *zero1995-11-11d2t06.flac
09b0fb91f7dcc6434bc28396e2ebbbd0 *zero1995-11-11d2t07.flac

Comments
Add Comment
Date User Comment