Browse Collections Artists Sources   Search Dates

Add Show    List Management    Help


Zero 11/18/95
Fairfax Pavilion, Fairfax, CA
Comments Add Comment    Source Collectors    Add to Collection    Add to Want List    History
Source # 96342 Other Sources
Entered by skbnut
Checksums ffp , md5
Disc Counts 2 / 2
Media Size
Date Circulated
Date Added

12/12/2008
Source Summary flac16;Recording Info:(FOB) Nakamichi 700/CP1 -> Dat (Sony D3/48k); Transfer Info:Dat (Sony R500) -> Sound Devices 744T -> Samplitude Professional v10.1 -> FLAC; Recorded by Robert Wagner (Dr. Bob); All Transfers and Mastering By Charlie Miller 
Source Information - Download Text | Download Zip
Zero - November 18, 1995
Fairfax Pavilion - Fairfax, CA

Recording Info:
(FOB) Nakamichi 700/CP1 -> Dat (Sony D3/48k)

Transfer Info:
Dat (Sony R500) -> Sound Devices 744T -> Samplitude Professional v10.1 -> FLAC
(2 Discs Audio / 2 Discs FLAC)

All Transfers and Mastering By Charlie Miller
[email protected]
December 11, 2008

Notes:
-- Recorded by Robert Wagner (Dr. Bob)
-- Thanks to Bob for lending me his Dat
-- There is a flase start to Shape I'm In

Set 1:
d1t01 - Wavy Gravy Introduction
d1t02 - Pits Of Thunder
d1t03 - Catalina ->
d1t04 - Tangled Hangers
d1t05 - Shape I'm In
d1t06 - Highway 61 Revisited

Set 2:
d2t01 - Golden Road
d2t02 - Horses ->
d2t03 - La Fiesta ->
d2t04 - Home On The Range

Encore:
d2t05 - Chance In A Million

Filler:
d2t06 - Sister Soul with Steve Kimock from opening set


SHNTOOL OUTPUT:
    length     expanded size   cdr  WAVE problems filename
     3:33.20       37620284    ---   --   -----   zero1995-11-18d1t01.wav
    12:11.44      129051932    ---   --   -----   zero1995-11-18d1t02.wav
     8:55.16       94411676    ---   --   -----   zero1995-11-18d1t03.wav
    14:24.53      152534300    ---   --   -----   zero1995-11-18d1t04.wav
     8:02.69       85187132    ---   --   -----   zero1995-11-18d1t05.wav
     7:56.18       84008780    ---   --   -----   zero1995-11-18d1t06.wav
    14:45.30      156184604    ---   --   -----   zero1995-11-18d2t01.wav
     8:36.19       91067132    ---   --   -----   zero1995-11-18d2t02.wav
    15:48.23      167281340    ---   --   -----   zero1995-11-18d2t03.wav
    16:29.24      174516092    ---   --   -----   zero1995-11-18d2t04.wav
     8:36.03       91029500    ---   --   -----   zero1995-11-18d2t05.wav
    12:49.73      135823340    ---   --   -----   zero1995-11-18d2t06.wav
   132:09.17     1398716112 B                     (totals for 12 files)
Show Checksums
ffp
zero1995-11-18d1t01.flac:973eebc8edad7a9c2827110f99283112
zero1995-11-18d1t02.flac:d60a1677b4c23827d1cd142a0b7fc448
zero1995-11-18d1t03.flac:346e06e8b90aa3d1e41f67144a8056ce
zero1995-11-18d1t04.flac:23aa88a50a4db474f6398a849b496b2d
zero1995-11-18d1t05.flac:24da618107030adc8ebcab7e051ff639
zero1995-11-18d1t06.flac:2a8199b50d05cb17065452579ae57711
zero1995-11-18d2t01.flac:027a86c36b0e86538143debde17332d7
zero1995-11-18d2t02.flac:ff7296d3132f35284f5c0b740d5d1a09
zero1995-11-18d2t03.flac:53e7189aa84fa25ceb5524a4efb7dbc2
zero1995-11-18d2t04.flac:4e4ae98d572ccf1e9b3912d5c30cf1fe
zero1995-11-18d2t05.flac:ee24820b6ffa32a31f41dba3efda7acf
zero1995-11-18d2t06.flac:ef78bdae6ca24be177af8394c493b5d6
md5
0ce15d666b37f499f5ae361d9bbb9546 *zero1995-11-18d1t01.flac
8285f3e406b6f6e991988b8953b0ebcc *zero1995-11-18d1t02.flac
dedb017b2e705613cb44402004002b52 *zero1995-11-18d1t03.flac
48ab50f32f077b271a18a75e326f95dd *zero1995-11-18d1t04.flac
fcf05911fea730888c451e7519c88e52 *zero1995-11-18d1t05.flac
c1be94e9b0e3986baf86c1ff0d7f299a *zero1995-11-18d1t06.flac
cf28532eafcca607686f47f2fc991046 *zero1995-11-18d2t01.flac
79c9b6758da2bb234e0b0c1719bab368 *zero1995-11-18d2t02.flac
d2eb3b6f6bb459a5b752f96b5fa73795 *zero1995-11-18d2t03.flac
cf54f1c6f32f5cee8fc3a0bb33e2dc95 *zero1995-11-18d2t04.flac
7b4826bfb9112756bbec28021507a8c9 *zero1995-11-18d2t05.flac
1544416aec335a96115eff58e81b8213 *zero1995-11-18d2t06.flac

Comments
Add Comment
Date User Comment