Browse Collections Artists Sources   Search Dates

Add Show    List Management    Help


Zero 06/29/95
Humpty's, Tahoe City, CA
Comments Add Comment    Source Collectors    Add to Collection    Add to Want List    History
Source # 96352 Other Sources
Entered by
Checksums d1.flac.md5 , d2.flac.md5
Disc Counts 2 / 2
Media Size
Date Circulated
Date Added
10/19/08
12/13/2008
Source Summary Source: SBD/AUD Matrix (70%/30% Mix) -> DAT -> CD
Lineage: CD -> EAC -> Flac
 
Source Information - Download Text | Download Zip
Zero
Thursday, June 29th, 1995
Humpty's, Tahoe City
California

Source: SBD/AUD Matrix (70%/30% Mix) -> DAT -> CD
Lineage: CD -> EAC -> Flac
EAC'd: October 19, 2008

Set 1:
d1t01 - Tongue 'n' Groove
d1t02 - It's Up To You
d1t03 - End of the World Blues
d1t04 - Theme From Nancy Germany
d1t05 - Catalina
d1t06 - Did I Mention

Set 2:
d2t01 - High and Lonesome ->
d2t02 - Baby Baby
d2t03 - Use Me Up
d2t04 - Many Rivers To Cross
d2t05 - Golden Road
Encore:
d2t06 - Richie's Rooster

d1: (63:41)
d2: (71:57)

Lineup:
-Steve Kimock - guitars
-Bobby Vega - bass
-Martin Fierro - saxophone, vocals
-Judge Murphy - vocals
-Chip Roland - keyboards, vocals
-Greg Anton - drums

Notes:
-- Nice mix with just enough audience to give the SBD some flavor.

**************************************************************************
Shntool Output
    length     expanded size   cdr  WAVE problems filename
    15:01.42      159035228    ---   --   ---xx   zero1995-06-29d1t01.flac
    12:50.32      135903308    ---   --   ---xx   zero1995-06-29d1t02.flac
    11:44.36      124270316    ---   --   ---xx   zero1995-06-29d1t03.flac
     6:45.03       71449100    ---   --   ---xx   zero1995-06-29d1t04.flac
    10:56.42      115817228    ---   --   ---xx   zero1995-06-29d1t05.flac
     6:23.13       67591820    ---   --   ---xx   zero1995-06-29d1t06.flac
    17:58.28      190225100    ---   --   ---xx   zero1995-06-29d2t01.flac
    11:13.09      118738412    ---   --   ---xx   zero1995-06-29d2t02.flac
     7:03.50       74734844    ---   --   ---xx   zero1995-06-29d2t03.flac
    12:27.29      131839052    ---   --   ---xx   zero1995-06-29d2t04.flac
    15:31.67      164386028    ---   --   ---xx   zero1995-06-29d2t05.flac
     7:42.40       81590924    ---   --   ---xx   zero1995-06-29d2t06.flac
   135:38.16        1369.08 MB                    
(totals for 12 files, 0.5554 overall compression ratio)

**************************************************************************
Flac Fingerprints
zero1995-06-29d1t01.flac:d2ac8ac2d22381b74203915b327e3b35
zero1995-06-29d1t02.flac:46ae5cb9ae2f05849d65e24789b2abcd
zero1995-06-29d1t03.flac:b98177c58c8bd5e2920ee2875dc6d0f9
zero1995-06-29d1t04.flac:51d032d5003c72df80104c08618eba9a
zero1995-06-29d1t05.flac:650ca82e31d967dbc783356d6243d1bc
zero1995-06-29d1t06.flac:242e8bf290372bb6617883b6d2bd8e8f
zero1995-06-29d2t01.flac:5de3f1d637d51252029e5cf61efd6466
zero1995-06-29d2t02.flac:348700077c43c245d492a86d8f58f7ab
zero1995-06-29d2t03.flac:a99275a129da1031f20ebd90b8f57157
zero1995-06-29d2t04.flac:6f02156c0d332fd7e6271281a20f0767
zero1995-06-29d2t05.flac:6acc5847caacc8de99876227977f7df5
zero1995-06-29d2t06.flac:f07e581400bc8ee952d7d39fd42aafbd
Show Checksums
d1.flac.md5
796b5275181632a3e232690a266cbaa3 *zero1995-06-29d1t01.flac
51ab08b396846f7d862458ec4cbcb938 *zero1995-06-29d1t02.flac
4f0529697f9c4417a4fe116ada8c91d5 *zero1995-06-29d1t03.flac
239e51a84ec144942b0b6e0e227a243b *zero1995-06-29d1t04.flac
7e329ef3a7906bdd6a29d2d2369d4a66 *zero1995-06-29d1t05.flac
80fca21f364ca719b921b97b0e005329 *zero1995-06-29d1t06.flac
d2.flac.md5
8d74b6946590290115aa34ef269edebf *zero1995-06-29d2t01.flac
5c4a320f0541206c1470cbd7a2181fad *zero1995-06-29d2t02.flac
4d356349b667e40a822fbf8c198ddd27 *zero1995-06-29d2t03.flac
87c60e7cb8c7afcf9fe84bd16cfeedcc *zero1995-06-29d2t04.flac
7c1eb691b668797e95f4dee076481524 *zero1995-06-29d2t05.flac
499f2a49f087e9dfce8317c624721407 *zero1995-06-29d2t06.flac

Comments
Add Comment
Other Sources (comments)
Unknown Mics > ? > CD > EAC... (0)
Date User Comment