Browse Collections Artists Sources   Search Dates

Add Show    List Management    Help


Grateful Dead 10/13/94
Madison Square Garden, New York, NY
Comments Add Comment    Source Collectors    Add to Collection    Add to Want List    History
Source # 96364 Other Sources
Entered by dr.unclear
Checksums ffp , flac-md5 , st5
Disc Counts 2 / 3
Media Size
Date Circulated
Date Added
12/13/2008
12/13/2008
Source Summary flac16; Source: aud > Nak 300 shotguns > WMD-6 > mac Transfer: mac > Nakamichi CR-5A > EMU 1212M > 24/96 Wave > Adobe Audition > Wavelab with iZotope Ozone > iZotope RX Advanced > 16/44.1 Wave > CD Wave > TLH > flac16; Taped by John Bleich from Section 11 > Row N > Seat 3, Edited by SIRMick 
  Archive
Source Information - Download Text | Download Zip
Grateful Dead
Madison Square Garden
New York, NY
10/13/1994

Source: aud > Nak 300 shotguns > WMD-6 > mac
Transfer: mac > Nakamichi CR-5A > EMU 1212M > 24/96 Wave > Adobe Audition >
                Wavelab with iZotope Ozone > iZotope RX Advanced > 16/44.1 Wave > CD Wave > TLH > flac16



Disc 1
set I

01   tuning
02   Touch Of Grey
03   Wang Dang Doodle
04   Loser
05   tuning
06   Mama Tried >
07   Mexicali Blues
08   tuning
09   Dupree's Diamond Blues
10   When I Paint My Masterpiece
11   Loose Lucy
12   tuning
13   Let It Grow


Disc 2
set II

01   tuning
02   Foolish Heart
03   Playing In The Band >
04   Uncle John's Band >
05   Jam >
06   Drums >


Disc 3
set II cont'd

01   Space >
02   The Other One >
03   Wharf Rat
04   Johnny B. Goode

encore

05   It's All Over Now, Baby Blue


Notes:

- tape flips after Dupree's Diamond Blues and  Johnny B. Goode have been crossfaded

- patched tracks

Foolish Heart 4:42 - 5:00
Drums 8:52 - 9:00 and 11:30 - 11:48

patch source: Schoeps CMC3/MK4 (ORTF) > Oade mic power supply > Casio DA-7 (lead deck) >
                           Coax SPDIF > Casio DA-7 (first deck out) > TDK DC4 (shnid 88356)

- seamless change between discs 2 and 3

----------------------------------------------------------

- Taped by John Bleich from Section 11 >  Row N > Seat 3

- Transfer by Bgreen

- Edited by SIRMick

- Brought To You By Live Music Preservation Project

- Seeded to www.shnflac.net - December 2008

- questions/comments, please contact [email protected]

-----------------------------------------------------------

Shntool output:

    length     expanded size   cdr  WAVE problems filename
     2:22.68       25208780    ---   --   ---xx   gd1994-10-13d1t01.flac
     6:51.24       72556892    ---   --   ---xx   gd1994-10-13d1t02.flac
     6:28.06       68457356    ---   --   ---xx   gd1994-10-13d1t03.flac
     6:59.15       73946924    ---   --   ---xx   gd1994-10-13d1t04.flac
     1:28.57       15657308    ---   --   ---xx   gd1994-10-13d1t05.flac
     2:37.14       27727772    ---   --   ---xx   gd1994-10-13d1t06.flac
     5:32.57       58698908    ---   --   ---xx   gd1994-10-13d1t07.flac
     1:09.69       12333932    ---   --   ---xx   gd1994-10-13d1t08.flac
     6:10.62       65413868    ---   --   ---xx   gd1994-10-13d1t09.flac
     5:30.05       58223804    ---   --   ---xx   gd1994-10-13d1t10.flac
     7:36.19       80483132    ---   --   ---xx   gd1994-10-13d1t11.flac
     1:58.37       20902268    ---   --   ---xx   gd1994-10-13d1t12.flac
    12:46.37      135209468    ---   --   ---xx   gd1994-10-13d1t13.flac
     3:44.17       39553628    ---   --   ---xx   gd1994-10-13d2t01.flac
    10:49.13      114514220    ---   --   ---xx   gd1994-10-13d2t02.flac
    11:02.19      116821532    ---   --   ---xx   gd1994-10-13d2t03.flac
    12:01.37      127271468    ---   --   ---xx   gd1994-10-13d2t04.flac
     5:47.08       61229660    ---   --   ---xx   gd1994-10-13d2t05.flac
    13:56.26      147531596    ---   --   ---xx   gd1994-10-13d2t06.flac
    11:39.73      123475340    ---   --   ---xx   gd1994-10-13d3t01.flac
    10:25.13      110280620    ---   --   ---xx   gd1994-10-13d3t02.flac
    11:41.38      123745820    ---   --   ---xx   gd1994-10-13d3t03.flac
     5:19.74       56445692    ---   --   ---xx   gd1994-10-13d3t04.flac
     7:52.46       83369036    ---   --   ---xx   gd1994-10-13d3t05.flac
   171:52.09     1819059024 B                     (totals for 24 files, 0.5732 overall compression ratio)
Show Checksums
ffp
gd1994-10-13d1t01.flac:29fd48bf8f87221b4bb9068a36b6f22f
gd1994-10-13d1t02.flac:a640dcd9d170bcb36bffbf7369b99d8f
gd1994-10-13d1t03.flac:66c0e7c896ce619416004dcab9300b69
gd1994-10-13d1t04.flac:e3f4e18d74def5b2db171e767d4dab63
gd1994-10-13d1t05.flac:b756618483b0d94d476f7ea1481ad8ea
gd1994-10-13d1t06.flac:c39339ae9b6ab4533172c340b02e017b
gd1994-10-13d1t07.flac:b8de6150fdd5dccda657640164abf2ed
gd1994-10-13d1t08.flac:6e2219133b343021ecf3f23d75058525
gd1994-10-13d1t09.flac:92059d957c42b7745ed16f7baacdf7ba
gd1994-10-13d1t10.flac:a9f658c46b8ccdc9802eefd9ad1a53ab
gd1994-10-13d1t11.flac:cd4655bc028d71343acb885882239316
gd1994-10-13d1t12.flac:f2f7984126428b64e419b72215f03341
gd1994-10-13d1t13.flac:93776d3d25fe5578daf78d73bab5260b
gd1994-10-13d2t01.flac:e51027be2c3981c0bcc29601120227f0
gd1994-10-13d2t02.flac:25046d6910710a4925ecdb2b260978ce
gd1994-10-13d2t03.flac:163799f37893440433441ee56b74a223
gd1994-10-13d2t04.flac:6c8ffab3f98bdb30f6e83d80430da997
gd1994-10-13d2t05.flac:0960d4dbc5ba1812b439c8623a368313
gd1994-10-13d2t06.flac:fab42bdeb7544cb1ee38a2ad5a29f0c8
gd1994-10-13d3t01.flac:77930b66f5409601ac089182a3e27e7b
gd1994-10-13d3t02.flac:97875a6609ae0f8c3c1aec6e2149bc82
gd1994-10-13d3t03.flac:9b874e330843dbeb129c04ce7dbfea45
gd1994-10-13d3t04.flac:7b021b08e3f7d2f65d5b5644fa7ca037
gd1994-10-13d3t05.flac:d4c0ecd77de6fe43aede288ea4a7e27d
flac-md5
5b5d3c10602848c2fcb11e0f205a17be *gd1994-10-13d1t01.flac
0e3acad7c0379761573751d7dd9b5844 *gd1994-10-13d1t02.flac
cb2003030754388be762634806823ca4 *gd1994-10-13d1t03.flac
394abcd91667d0ed33d0f52ea1de79b4 *gd1994-10-13d1t04.flac
a42757b89e38d02e2ac875d75eabb242 *gd1994-10-13d1t05.flac
b5756f79f6b52b830dd32c18bd43c2a3 *gd1994-10-13d1t06.flac
7df065d38737b2a24839bb5c18a747b6 *gd1994-10-13d1t07.flac
8443df105cd0cc64236191932b62d451 *gd1994-10-13d1t08.flac
f2f32f7195fa1dec649369c4b3a1f747 *gd1994-10-13d1t09.flac
9b569d7dd82d66244d24d1858e785620 *gd1994-10-13d1t10.flac
fa55ab4a9dfee22e29bf71a77b109bd7 *gd1994-10-13d1t11.flac
7c83d057d8d2a6397d689f6e7126d6b5 *gd1994-10-13d1t12.flac
7b19bd4bb905be38a5fbb10a0e82dd22 *gd1994-10-13d1t13.flac
70a81c560f4901d93f870c4fa57def94 *gd1994-10-13d2t01.flac
20b7db275ef60efc0053da370cf1bbc5 *gd1994-10-13d2t02.flac
4d4ed2866c9d62b630a054b3d6158ee3 *gd1994-10-13d2t03.flac
45a8915878b5b6e7afe7a0fb0796897f *gd1994-10-13d2t04.flac
b97dfb8df28d8bd9ed2e4d46b4e18a2e *gd1994-10-13d2t05.flac
da2acffa314e266df59760a898f54662 *gd1994-10-13d2t06.flac
6de98b865cb5d80bdbc8826d6a2d0088 *gd1994-10-13d3t01.flac
27e71f1526cde1dd7a344895871466a7 *gd1994-10-13d3t02.flac
489f3844bc1b302e38484f389ef6239b *gd1994-10-13d3t03.flac
aa17b130d1aae6bd78b8163a55e29a92 *gd1994-10-13d3t04.flac
30429e4bec96d12e269bffcbee9ae8e5 *gd1994-10-13d3t05.flac
st5
29fd48bf8f87221b4bb9068a36b6f22f [shntool] gd1994-10-13d1t01.flac
a640dcd9d170bcb36bffbf7369b99d8f [shntool] gd1994-10-13d1t02.flac
66c0e7c896ce619416004dcab9300b69 [shntool] gd1994-10-13d1t03.flac
e3f4e18d74def5b2db171e767d4dab63 [shntool] gd1994-10-13d1t04.flac
b756618483b0d94d476f7ea1481ad8ea [shntool] gd1994-10-13d1t05.flac
c39339ae9b6ab4533172c340b02e017b [shntool] gd1994-10-13d1t06.flac
b8de6150fdd5dccda657640164abf2ed [shntool] gd1994-10-13d1t07.flac
6e2219133b343021ecf3f23d75058525 [shntool] gd1994-10-13d1t08.flac
92059d957c42b7745ed16f7baacdf7ba [shntool] gd1994-10-13d1t09.flac
a9f658c46b8ccdc9802eefd9ad1a53ab [shntool] gd1994-10-13d1t10.flac
cd4655bc028d71343acb885882239316 [shntool] gd1994-10-13d1t11.flac
f2f7984126428b64e419b72215f03341 [shntool] gd1994-10-13d1t12.flac
93776d3d25fe5578daf78d73bab5260b [shntool] gd1994-10-13d1t13.flac
e51027be2c3981c0bcc29601120227f0 [shntool] gd1994-10-13d2t01.flac
25046d6910710a4925ecdb2b260978ce [shntool] gd1994-10-13d2t02.flac
163799f37893440433441ee56b74a223 [shntool] gd1994-10-13d2t03.flac
6c8ffab3f98bdb30f6e83d80430da997 [shntool] gd1994-10-13d2t04.flac
0960d4dbc5ba1812b439c8623a368313 [shntool] gd1994-10-13d2t05.flac
fab42bdeb7544cb1ee38a2ad5a29f0c8 [shntool] gd1994-10-13d2t06.flac
77930b66f5409601ac089182a3e27e7b [shntool] gd1994-10-13d3t01.flac
97875a6609ae0f8c3c1aec6e2149bc82 [shntool] gd1994-10-13d3t02.flac
9b874e330843dbeb129c04ce7dbfea45 [shntool] gd1994-10-13d3t03.flac
7b021b08e3f7d2f65d5b5644fa7ca037 [shntool] gd1994-10-13d3t04.flac
d4c0ecd77de6fe43aede288ea4a7e27d [shntool] gd1994-10-13d3t05.flac

Comments
Add Comment
Other Sources (comments)
SBD> DAT> C> DAT> CDR> EAC>... (2) flac16; SBD -> Dat... (0) Seamless fix of (1) flac16/48; AUD:... (0) flac16; AUD: Schoeps... (0) flac16/48kHz; Master... (0)
Date User Comment