Browse Collections Artists Sources   Search Dates

Add Show    List Management    Help


Grateful Dead 10/14/94
Madison Square Garden, New York, NY
Comments Add Comment    Source Collectors    Add to Collection    Add to Want List    History
Source # 96383 Other Sources
Entered by dr.unclear
Checksums ffp , flac-md5 , st5
Disc Counts 2 / 3
Media Size
Date Circulated
Date Added
12/15/2008
12/15/2008
Source Summary flac16; Source: aud > Nak 300 shotguns > WMD-6 > mac Transfer: mac > Nakamichi CR-5A > EMU 1212M > 24/96 Wave > Adobe Audition > Wavelab with iZotope Ozone > iZotope RX Advanced > 16/44.1 Wave > CD Wave > TLH > flac16 
  Archive
Source Information - Download Text | Download Zip
Grateful Dead
Madison Square Garden
New York, NY
10/14/94


Source: aud > Nak 300 shotguns > WMD-6 > mac
Transfer: mac > Nakamichi CR-5A > EMU 1212M > 24/96 Wave > Adobe Audition >
                Wavelab with iZotope Ozone > iZotope RX Advanced > 16/44.1 Wave > CD Wave > TLH > flac16



Disc 1
set I

01   tuning
02   Jack Straw
03   West L.A. Fadeaway
04   Queen Jane Approximately
05   Lazy River Road
06   crowd/tuning
07   El Paso #
08   Ramble On Rose
09   Box Of Rain


Disc 2
set II

01   tuning
02   Scarlet Begonias >
03   Fire On The Mountain
04   crowd/tuning
05   Looks Like Rain
06   Samba In The Rain


Disc 3
set II cont'd

01   Corrina >
02   Drums >
03   Space >
04   I Need A Miracle >
05   Attics Of My Life >
06   Turn On Your Lovelight

encore

07   Liberty


Notes:

- tape flip after Ramble On Rose crossfaded

- patched tracks:

Corrina 2:58 - 3:13
I Need A Miracle 5:11 - 5;15

patch source: Schoeps CMC521 > Sonosax SX-M2 > Apogee AD-1000 > Sony D10 (FOB) (shnid 83822)

- seamless change between discs 2 and 3


Comments:

# Weir on acoustic gutiar
----------------------------------------------------------

- Taped by John Bleich from Section 10, Row P, Seat 4

- Transfer by Bgreen

- Edited by SIRMick

- Brought To You By Live Music Preservation Project

- Seeded to www.shnflac.net - December 2008

- questions/comments, please contact [email protected]

-----------------------------------------------------------

Shntool output:

    length     expanded size   cdr  WAVE problems filename
     1:45.42       18620828    ---   --   ---xx   gd1994-10-14d1t01.flac
     6:04.48       64322540    ---   --   ---xx   gd1994-10-14d1t02.flac
     8:37.57       91332908    ---   --   ---xx   gd1994-10-14d1t03.flac
     6:14.30       66044204    ---   --   ---xx   gd1994-10-14d1t04.flac
     6:15.06       66164156    ---   --   ---xx   gd1994-10-14d1t05.flac
     1:14.06       13067756    ---   --   ---xx   gd1994-10-14d1t06.flac
     6:34.63       69649820    ---   --   ---xx   gd1994-10-14d1t07.flac
     9:12.60       97513964    ---   --   ---xx   gd1994-10-14d1t08.flac
     5:19.42       56370428    ---   --   ---xx   gd1994-10-14d1t09.flac
     0:45.19        7982732    ---   --   ---xx   gd1994-10-14d2t01.flac
     9:17.54       98381852    ---   --   ---xx   gd1994-10-14d2t02.flac
    22:15.05      235505804    ---   --   ---xx   gd1994-10-14d2t03.flac
     1:08.43       12096380    ---   --   ---xx   gd1994-10-14d2t04.flac
     8:44.15       92468924    ---   --   ---xx   gd1994-10-14d2t05.flac
     7:08.05       75511004    ---   --   ---xx   gd1994-10-14d2t06.flac
    17:12.00      182044844    ---   --   ---xx   gd1994-10-14d3t01.flac
    10:47.04      114140252    ---   --   ---xx   gd1994-10-14d3t02.flac
    17:20.53      183580700    ---   --   ---xx   gd1994-10-14d3t03.flac
     5:43.34       60585212    ---   --   ---xx   gd1994-10-14d3t04.flac
     5:10.28       54749900    ---   --   ---xx   gd1994-10-14d3t05.flac
     6:39.40       70477724    ---   --   ---xx   gd1994-10-14d3t06.flac
     6:21.07       67224908    ---   --   ---xx   gd1994-10-14d3t07.flac
   169:51.61     1797836840 B                     (totals for 22 files, 0.6000 overall compression ratio)
Show Checksums
ffp
gd1994-10-14d1t01.flac:933e3957a5d9d2038d0bdf021c406e5a
gd1994-10-14d1t02.flac:55ec79774e6264f74160d5954318c5a9
gd1994-10-14d1t03.flac:935459b54d8f188ce1fa507076eb6c82
gd1994-10-14d1t04.flac:5b6b8ab6471f6d5153ed4ba5429f73f2
gd1994-10-14d1t05.flac:9a22076e5e12059a58fdff8b438eacb2
gd1994-10-14d1t06.flac:79f573dda838a11d6c0c2ae7200511ff
gd1994-10-14d1t07.flac:cd89f624c08e0225f71609ce791ea58a
gd1994-10-14d1t08.flac:dad860c1edd43e10931cd13c25d4b7e7
gd1994-10-14d1t09.flac:163e147bced2fda965d740720a95862a
gd1994-10-14d2t01.flac:cf1dc0acea340ef2877a4071811e4df9
gd1994-10-14d2t02.flac:4792cbe19a6a510a423343cd78672fa3
gd1994-10-14d2t03.flac:5ee2127bb7865314d4edb97e2322fafd
gd1994-10-14d2t04.flac:f1ec8e545ef6a93bc7da220690b869a0
gd1994-10-14d2t05.flac:0aebbeb62ee8b6535a1ce6517e1c6e59
gd1994-10-14d2t06.flac:96eabf21279f06a942286249fa585c66
gd1994-10-14d3t01.flac:a8c0afc45e03104c4819b72f9fc4a768
gd1994-10-14d3t02.flac:813bb01787962ef1ddd6c8686fcdfc11
gd1994-10-14d3t03.flac:ce726f24e805e0527ed4d55633b25470
gd1994-10-14d3t04.flac:3fb49b0c7e820c07d812ec0520cb5da7
gd1994-10-14d3t05.flac:b23ab2c4f5f8e9a1c4976c12a48bd543
gd1994-10-14d3t06.flac:c3269035ea3112a2dc193749ef5f0260
gd1994-10-14d3t07.flac:820b35d8102afd88688da1bf72e1c6fc
flac-md5
d7db94ebc0361369a9c2527c4f97065e *gd1994-10-14d1t01.flac
c6664ad77a6d3991c76929ec9c8c29c9 *gd1994-10-14d1t02.flac
fc6ac1bcdc86b1c20418a51c0b8306e8 *gd1994-10-14d1t03.flac
b81c5b6cc1ed7df6af3a0ec187ac51e6 *gd1994-10-14d1t04.flac
13710f10f71267040959c7f9f1d20a91 *gd1994-10-14d1t05.flac
2dd8656d071dd1b8577e02baf61dc1d4 *gd1994-10-14d1t06.flac
937051db93239cbdf2dc3e58f7311987 *gd1994-10-14d1t07.flac
7b7493324bab82cfc98e9208b065c3f4 *gd1994-10-14d1t08.flac
61759b87a33b0ad7f7c2129f54bb50c6 *gd1994-10-14d1t09.flac
ea3abe4940ae1b4e599de803d732c09b *gd1994-10-14d2t01.flac
91ac508096d8f36c32e3eef74a704a68 *gd1994-10-14d2t02.flac
c40b8b438fba154d0c5dd1c81ff6291f *gd1994-10-14d2t03.flac
b57b6de47aedaae8a006d3afae84abf2 *gd1994-10-14d2t04.flac
bd87ea8433b34feefb0c3684d157df71 *gd1994-10-14d2t05.flac
7605a6e38bb109ab2b8bc63ea13d0d91 *gd1994-10-14d2t06.flac
dea99b467a72876c13a2527fab17aa4c *gd1994-10-14d3t01.flac
85c22fe93ae2462ea161e4ec06c4b27d *gd1994-10-14d3t02.flac
773ea72e804d360521534cc743b5593e *gd1994-10-14d3t03.flac
7885c48ac90f4f0eae31363dee7ba29c *gd1994-10-14d3t04.flac
7a0241b315764b83a2ba2282c01bf9ae *gd1994-10-14d3t05.flac
9539734cf6c68f6e3f2617a39b37d98e *gd1994-10-14d3t06.flac
18c20ca0a3af7959f990d6c20c907c71 *gd1994-10-14d3t07.flac
st5
933e3957a5d9d2038d0bdf021c406e5a [shntool] gd1994-10-14d1t01.flac
55ec79774e6264f74160d5954318c5a9 [shntool] gd1994-10-14d1t02.flac
935459b54d8f188ce1fa507076eb6c82 [shntool] gd1994-10-14d1t03.flac
5b6b8ab6471f6d5153ed4ba5429f73f2 [shntool] gd1994-10-14d1t04.flac
9a22076e5e12059a58fdff8b438eacb2 [shntool] gd1994-10-14d1t05.flac
79f573dda838a11d6c0c2ae7200511ff [shntool] gd1994-10-14d1t06.flac
cd89f624c08e0225f71609ce791ea58a [shntool] gd1994-10-14d1t07.flac
dad860c1edd43e10931cd13c25d4b7e7 [shntool] gd1994-10-14d1t08.flac
163e147bced2fda965d740720a95862a [shntool] gd1994-10-14d1t09.flac
cf1dc0acea340ef2877a4071811e4df9 [shntool] gd1994-10-14d2t01.flac
4792cbe19a6a510a423343cd78672fa3 [shntool] gd1994-10-14d2t02.flac
5ee2127bb7865314d4edb97e2322fafd [shntool] gd1994-10-14d2t03.flac
f1ec8e545ef6a93bc7da220690b869a0 [shntool] gd1994-10-14d2t04.flac
0aebbeb62ee8b6535a1ce6517e1c6e59 [shntool] gd1994-10-14d2t05.flac
96eabf21279f06a942286249fa585c66 [shntool] gd1994-10-14d2t06.flac
a8c0afc45e03104c4819b72f9fc4a768 [shntool] gd1994-10-14d3t01.flac
813bb01787962ef1ddd6c8686fcdfc11 [shntool] gd1994-10-14d3t02.flac
ce726f24e805e0527ed4d55633b25470 [shntool] gd1994-10-14d3t03.flac
3fb49b0c7e820c07d812ec0520cb5da7 [shntool] gd1994-10-14d3t04.flac
b23ab2c4f5f8e9a1c4976c12a48bd543 [shntool] gd1994-10-14d3t05.flac
c3269035ea3112a2dc193749ef5f0260 [shntool] gd1994-10-14d3t06.flac
820b35d8102afd88688da1bf72e1c6fc [shntool] gd1994-10-14d3t07.flac

Comments
Add Comment
Other Sources (comments)
sbd> dat> c> dat> cdr; EAC>... (3) Sbd>C>Dat>CDR>EAC>CDR>EAC>S... (1) flac16; Recording... (0) flac16; Source:... (1) flac16; Matrix by... (0) flac16/48kHz; Master... (0)
Date User Comment