Browse Collections Artists Sources   Search Dates

Add Show    List Management    Help


Grateful Dead 08/20/83
Frost Amphitheatre, Palo Alto, CA
Comments Add Comment    Source Collectors    Add to Collection    Add to Want List    History
Source # 96387 Other Sources
Entered by dr.unclear
Checksums flac-md5 , ffp
Disc Counts 2 / 3
Media Size
Date Circulated
Date Added
12/16/2008
12/16/2008
Source Summary flac16; Recording Info: (FOB) Sony ECM-220T -> Cassette Master (Sony TC-D5M/Fuji Metal Tape/Dolby B); Transfer Info: Cassette Master (Nakamichi DR-1/Dolby B) -> Sound Devices 744T (24bit/96k) -> Samplitude Professional v10.2 -> r8brain PRO v1.5 -> FLAC/16; Taped By Rango Keshavan; All Transfers and Mastering By Charlie Miller 
  Archive
Source Information - Download Text | Download Zip
Grateful Dead - August 20, 1983
Frost Amphitheatre - Palo Alto, CA
Stanford University

Recording Info:
(FOB) Sony ECM-220T -> Cassette Master (Sony TC-D5M/Fuji Metal Tape/Dolby B)

Transfer Info:
Cassette Master (Nakamichi DR-1/Dolby B) -> Sound Devices 744T (24bit/96k) ->
Samplitude Professional v10.2 -> r8brain PRO v1.5 -> FLAC/16
(3 Discs Audio / 2 Discs FLAC)

All Transfers and Mastering By Charlie Miller
[email protected]
December 15, 2008

Patch Info:
Neumann KM84 -> Cassette Master -> Dat -> CD (shnid=12081) supplies:
Man Smart (Woman Smarter) (0:00 - 0:01)
Good Lovin' (7:35 - 7:45)

Notes:
-- Set 2 disc change is seamless
-- Thanks to Rango Keshavan for lending me his masters
-- Thanks to Joe B. Jones for his help with the patch source pitch correction

Set 1:
d1t01 - Alabama Getaway ->
d1t02 - Greatest Story Ever Told
d1t03 - They Love Each Other
d1t04 - New Minglewood Blues
d1t05 - Bird Song
d1t06 - Looks Like Rain
d1t07 - Tennessee Jed
d1t08 - My Brother Esau ->
d1t09 - Deal

Set 2:
d2t01 - Shakedown Street
d2t02 - Man Smart (Woman Smarter)
d2t03 - Ship Of Fools
d2t04 - Estimated Prophet ->
d2t05 - Eyes Of The World ->
d2t06 - Drums ->
d3t01 - Space ->
d3t02 - The Other One ->
d3t03 - Black Peter ->
d3t04 - Good Lovin'

Encore:
d3t05 - One More Saturday Night


SHNTOOL OUTPUT:
    length     expanded size   cdr  WAVE problems filename
     6:22.46       67493036    ---   --   -----   gd83-08-20d1t01.wav
     4:46.23       50504540    ---   --   -----   gd83-08-20d1t02.wav
     7:33.03       79916300    ---   --   -----   gd83-08-20d1t03.wav
     8:05.56       85685756    ---   --   -----   gd83-08-20d1t04.wav
     9:34.57      101387708    ---   --   -----   gd83-08-20d1t05.wav
     7:39.68       81127580    ---   --   -----   gd83-08-20d1t06.wav
     7:32.51       79852796    ---   --   -----   gd83-08-20d1t07.wav
     5:08.10       54354764    ---   --   -----   gd83-08-20d1t08.wav
     9:02.56       95740556    ---   --   -----   gd83-08-20d1t09.wav
    13:50.43      146513180    ---   --   -----   gd83-08-20d2t01.wav
     6:48.19       72015932    ---   --   -----   gd83-08-20d2t02.wav
     6:59.52       74033948    ---   --   -----   gd83-08-20d2t03.wav
    13:52.56      146896556    ---   --   -----   gd83-08-20d2t04.wav
     9:56.73      105306140    ---   --   -----   gd83-08-20d2t05.wav
     8:54.57       94331708    ---   --   -----   gd83-08-20d2t06.wav
     8:31.06       90154556    ---   --   -----   gd83-08-20d3t01.wav
     8:02.61       85168316    ---   --   -----   gd83-08-20d3t02.wav
     9:37.36      101867516    ---   --   -----   gd83-08-20d3t03.wav
     9:44.71      103184636    ---   --   -----   gd83-08-20d3t04.wav
     4:33.00       48157244    ---   --   -----   gd83-08-20d3t05.wav
   166:38.19     1763692768 B                     (totals for 20 files)
Show Checksums
flac-md5
4a767bfa0e5a6c6d135a6e0e6b751fd5 *gd83-08-20d1t01.flac
496db61c9f3a107fd566301eb0cf78bd *gd83-08-20d1t02.flac
59c4094aeb2cbb7347861d721851735e *gd83-08-20d1t03.flac
7ccbada7f2347b8e9aba6a357901fa8f *gd83-08-20d1t04.flac
3b4eb4835b520440a104e7f5d928df65 *gd83-08-20d1t05.flac
cc05c03de5adfc2136b22a92f276a348 *gd83-08-20d1t06.flac
18be82cf36a7822d1917cb13610a8d17 *gd83-08-20d1t07.flac
c234cd7613025a3a1247fcf72f907750 *gd83-08-20d1t08.flac
cdd04c4da26af1b31d32b5cb9288d4be *gd83-08-20d1t09.flac
30006ad1fa66e5413d65a82a5dbb8826 *gd83-08-20d2t01.flac
cecf09e5619a7f201e53b8e6111d77dd *gd83-08-20d2t02.flac
bd21f585552131fc0869b9d20b288373 *gd83-08-20d2t03.flac
fded4cadb3427406c21af0f5094cb44a *gd83-08-20d2t04.flac
c5f6bf823ccb20e92f6c292e6c8ea86b *gd83-08-20d2t05.flac
5a462c253bdc38a09458ddc8b59a2a4f *gd83-08-20d2t06.flac
f8a7a27e90cd2bf45d92c706900d8f1f *gd83-08-20d3t01.flac
da4345e21e3018d3ae7633ed5b7f9626 *gd83-08-20d3t02.flac
857e69e9c9400866beb911a5eed6efd2 *gd83-08-20d3t03.flac
6c65e3df044d7a0f69c0d7961fbefc30 *gd83-08-20d3t04.flac
671f10ab010f6e3cf181683edb19bd38 *gd83-08-20d3t05.flac
ffp
gd83-08-20d1t01.flac:1e196abf0db269fadc735f40a35f7c88
gd83-08-20d1t02.flac:757445f570378ed83fbbcd8ba0817fab
gd83-08-20d1t03.flac:dbe38cd5e5a56f2f040837b3e66e6d68
gd83-08-20d1t04.flac:437fed5c907b2205e27a63ffb0d27ed6
gd83-08-20d1t05.flac:a6c69f20376a617a3fb1ea4e68849deb
gd83-08-20d1t06.flac:84f61798a75c09453f46aced886713ad
gd83-08-20d1t07.flac:2d8af97cf6d275584ba9523ce6dbc5e7
gd83-08-20d1t08.flac:deb678d9ec5bce96e2b437d93faf01d0
gd83-08-20d1t09.flac:f9f67a747ef0360e5ed17dec8a9bd319
gd83-08-20d2t01.flac:c03feb30fd7681e035ef15eeb59be14e
gd83-08-20d2t02.flac:63609a8303f4485d96dbbbf30f6f460a
gd83-08-20d2t03.flac:86dd5417071f989e88da447cd5a632b8
gd83-08-20d2t04.flac:5592f59d62c6f8d4cbdf3d0b2d72ffcc
gd83-08-20d2t05.flac:86963d5ecefd6d7b393c18c79cca9e00
gd83-08-20d2t06.flac:104f732b3728369bb44e99de0d1e4e88
gd83-08-20d3t01.flac:53def7e1f6b423bc45cdc08925472e71
gd83-08-20d3t02.flac:b4d4b1e17a2aeb235a54530fc2c8784c
gd83-08-20d3t03.flac:9849208eb7c3df6e79e42c1c789e54cd
gd83-08-20d3t04.flac:bb754c0bdc3f679bbc742cd3889286c2
gd83-08-20d3t05.flac:36ff1aef461405ea90c780d5ca22dea1

Comments
Add Comment
Other Sources (comments)
AUD(Neumann KM... (0) flac16; Source: 2... (0)
Date User Comment