Browse Collections Artists Sources   Search Dates

Add Show    List Management    Help


Grateful Dead 07/30/83
Ventura County Fairgrounds, Ventura, CA
Comments Add Comment    Source Collectors    Add to Collection    Add to Want List    History
Source # 96401 Other Sources
Entered by dr.unclear
Checksums flac-md5 , ffp
Disc Counts 2 / 2
Media Size
Date Circulated
Date Added
12/16/2008
12/16/2008
Source Summary flac16; Recording Info: (FOB) Sony ECM-220T -> Cassette Master (Sony TC-D5M/Fuji Metal Tape/Dolby B); Transfer Info: Cassette Master (Nakamichi DR-1/Dolby B) -> Sound Devices 744T (24bit/96k) -> Samplitude Professional v10.2 -> r8brain PRO v1.5 -> FLAC/16; Taped By Rango Keshavan; All Transfers and Mastering By Charlie Miller 
  Archive
Source Information - Download Text | Download Zip
Grateful Dead - July 30, 1983
County Fairgrounds - Ventura, CA

Recording Info:
(FOB) Sony ECM-220T -> Cassette Master (Sony TC-D5M/Fuji Metal Tape/Dolby B)

Transfer Info:
Cassette Master (Nakamichi DR-1/Dolby B) -> Sound Devices 744T (24bit/96k) ->
Samplitude Professional v10.2 -> r8brain PRO v1.5 -> FLAC/16
(2 Discs Audio / 2 Discs FLAC)

All Transfers and Mastering By Charlie Miller
[email protected]
December 15, 2008

Notes:
-- Disc change is seamless
-- There is some slight wind noise
-- Thanks to Rango Keshavan for lending me his masters

Set 1:
d1t01 - China Cat Sunflower ->
d1t02 - I Know You Rider
d1t03 - It's All Over Now
d1t04 - Brown Eyed Women
d1t05 - My Brother Esau
d1t06 - Big Railroad Blues
d1t07 - Cassidy
d1t08 - Loser
d1t09 - The Music Never Stopped

Set 2:
d1t10 - Sugaree
d2t01 - Playing In The Band ->
d2t02 - China Doll ->
d2t03 - Drums ->
d2t04 - Space ->
d2t05 - Truckin' ->
d2t06 - Black Peter ->
d2t07 - Sugar Magnolia

Encore:
d2t08 - U.S. Blues


SHNTOOL OUTPUT:
    length     expanded size   cdr  WAVE problems filename
     6:26.72       68259788    ---   --   -----   gd83-07-30d1t01.wav
     5:36.51       59390396    ---   --   -----   gd83-07-30d1t02.wav
     8:07.62       86052668    ---   --   -----   gd83-07-30d1t03.wav
     5:21.01       56626796    ---   --   -----   gd83-07-30d1t04.wav
     4:32.42       48079628    ---   --   -----   gd83-07-30d1t05.wav
     5:24.69       57315932    ---   --   -----   gd83-07-30d1t06.wav
     5:43.24       60561692    ---   --   -----   gd83-07-30d1t07.wav
     7:29.17       79243628    ---   --   -----   gd83-07-30d1t08.wav
     8:49.38       93405020    ---   --   -----   gd83-07-30d1t09.wav
    11:10.24      118244492    ---   --   -----   gd83-07-30d1t10.wav
    11:28.26      121424396    ---   --   -----   gd83-07-30d2t01.wav
    10:00.09      105861212    ---   --   -----   gd83-07-30d2t02.wav
    14:23.47      152343788    ---   --   -----   gd83-07-30d2t03.wav
     7:05.66       75125276    ---   --   -----   gd83-07-30d2t04.wav
     8:19.62       88169468    ---   --   -----   gd83-07-30d2t05.wav
     8:38.69       91537532    ---   --   -----   gd83-07-30d2t06.wav
    10:16.02      108667148    ---   --   -----   gd83-07-30d2t07.wav
     5:09.34       54587612    ---   --   -----   gd83-07-30d2t08.wav
   144:04.40     1524896472 B                     (totals for 18 files)
Show Checksums
flac-md5
42221aaeb7f9dbe69f39955285fa1714 *gd83-07-30d1t01.flac
49a0360b9b79e769db149d0178aa0b1e *gd83-07-30d1t02.flac
06a86cb576b59f0a6c3f941c6cd54c03 *gd83-07-30d1t03.flac
3241263d61b26efff857966440fd825a *gd83-07-30d1t04.flac
d2030e62cad285e974d0beaf87e6d1b4 *gd83-07-30d1t05.flac
ed3abb1219b31a98fd9b76b42c2c2f18 *gd83-07-30d1t06.flac
e792a4aea7a811f77a883f18714e4b14 *gd83-07-30d1t07.flac
aa79522a1201c217c627fba3f73daa7f *gd83-07-30d1t08.flac
213b65100fc377ee7a90c6d6ab206786 *gd83-07-30d1t09.flac
42cf565a3bab80c41f1c4569c482af7a *gd83-07-30d1t10.flac
400cf3cae06df92a0ab09320dd28ba64 *gd83-07-30d2t01.flac
67f6e3141187338e2c6c56782b0d9064 *gd83-07-30d2t02.flac
49f013ec656b9397c0b0e028172cb55b *gd83-07-30d2t03.flac
86d79df3505fb4d4cb02d294fec9bd5e *gd83-07-30d2t04.flac
7720129df883ca9689f670504c4aa769 *gd83-07-30d2t05.flac
6ca85d2d476cb08419173c5936c60dc0 *gd83-07-30d2t06.flac
ffb1e8ad48b69bcd6f65b489e7db923a *gd83-07-30d2t07.flac
56e353efb5963e33a97e566e5847295f *gd83-07-30d2t08.flac
ffp
gd83-07-30d1t01.flac:b73a4572ba7a62e9f9558c4364169ebd
gd83-07-30d1t02.flac:7dcebe3046d636fb6791dda37eea3d14
gd83-07-30d1t03.flac:9120ed7f43d858dee22014a0b2f128e2
gd83-07-30d1t04.flac:4b3779497f173f68f648f79f7660d0cf
gd83-07-30d1t05.flac:597c22e7e83e96c65a4877008cca2e51
gd83-07-30d1t06.flac:4c9007c87a6654c2b9f672f68aef6421
gd83-07-30d1t07.flac:ac700a94ee073fcaa0970fa89f8a6456
gd83-07-30d1t08.flac:a752bdd94d600ebfc49b302451f891d8
gd83-07-30d1t09.flac:8b37dc572d6ced70f7e8d2cfd9cf8e6e
gd83-07-30d1t10.flac:67be15a4928a1b15a6086c829c385055
gd83-07-30d2t01.flac:dbdf773f34d364cd5302ebf9929d896e
gd83-07-30d2t02.flac:fd32fc619f1a6165e395625ef5deed84
gd83-07-30d2t03.flac:e3fd9573a4ace5305c285e46a3821b2d
gd83-07-30d2t04.flac:665d186f250b6644fd57105204b61a0b
gd83-07-30d2t05.flac:0ff56d82297e06fdad19622027f4ebd4
gd83-07-30d2t06.flac:1d1a83ae341bdff68d307280abf85fef
gd83-07-30d2t07.flac:dceb89349dd7bc449b2621d15b2bbee4
gd83-07-30d2t08.flac:d74849d3d64286aa49201b928fe03b6f

Comments
Add Comment
Other Sources (comments)
ACM>DAT>CDR; via Paul B;... (1) flac16/48kHz;... (0)
Date User Comment