Browse Collections Artists Sources   Search Dates

Add Show    List Management    Help


Grateful Dead 12/01/79
Stanley Theater, Pittsburgh, PA
Comments Add Comment    Source Collectors    Add to Collection    Add to Want List    History
Source # 96408 Other Sources
Entered by dr.unclear
Checksums ffp , flac-md5
Disc Counts 2 / 3
Media Size
Date Circulated
Date Added
12/17/2008
12/17/2008
Source Summary flac16; Recording Info: SBD -> Cassette Master (Sony TCD5M/UDXL-II) -> Dat (Panasonic SV3800/48k); Transfer Info: Dat (Sony D8) -> M-Audio Dio2448 -> Samplitude Professional v8.0 -> FLAC -> Adobe Audition v1.5 -> Samplitude Professional v10.2 -> FLAC All Transfers and Mastering By Charlie Miller; this is a re-master of source id 29429 
  Archive
Source Information - Download Text | Download Zip
Grateful Dead - December 1, 1979
Stanley Theatre - Pittsburgh, PA

Recording Info:
SBD -> Cassette Master (Sony TCD5M/UDXL-II) -> Dat (Panasonic SV3800/48k)

Transfer Info:
Dat (Sony D8) -> M-Audio Dio2448 -> Samplitude Professional v8.0 -> FLAC ->
Adobe Audition v1.5 -> Samplitude Professional v10.2 -> FLAC
(3 Discs Audio / 2 Discs FLAC)

All Transfers and Mastering By Charlie Miller
[email protected]
December 15, 2008

Patch Info:
Unknown Mics -> Cassette Master -> ? -> CD (shnid=31330) supplies:
Jack Straw (0:00 - 0:15)
Me And My Uncle (0:00 - 0:07)

Notes:
-- Set 2 is seamless
-- This is a re-master of shnid=29429
-- Thanks to Joe B. Jones for his help with the pitch correction

Set 1:
d1t01 - Jack Straw ->
d1t02 - Sugaree
d1t03 - Me And My Uncle ->
d1t04 - Big River
d1t05 - Loser
d1t06 - Easy To Love You
d1t07 - New Minglewood Blues
d1t08 - Althea
d1t09 - The Music Never Stopped

Set 2:
d2t01 - China Cat Sunflower ->
d2t02 - I Know You Rider
d2t03 - Looks Like Rain
d2t04 - He's Gone ->
d2t05 - Gloria Jam ->
d2t06 - C C Rider ->
d2t07 - Jam ->
d2t08 - Drums ->
d3t01 - Not Fade Away ->
d3t02 - Black Peter ->
d3t03 - Sugar Magnolia

Encore:
d3t04 - One More Saturday Night


SHNTOOL OUTPUT:
    length     expanded size   cdr  WAVE problems filename
     5:37.56       59578556    ---   --   -----   gd79-12-01d1t01.wav
    17:07.52      181285148    ---   --   -----   gd79-12-01d1t02.wav
     2:54.49       30808892    ---   --   -----   gd79-12-01d1t03.wav
     6:50.35       72406364    ---   --   -----   gd79-12-01d1t04.wav
     9:03.56       95916956    ---   --   -----   gd79-12-01d1t05.wav
     3:48.66       40374476    ---   --   -----   gd79-12-01d1t06.wav
     7:31.42       79655228    ---   --   -----   gd79-12-01d1t07.wav
    12:00.53      127132700    ---   --   -----   gd79-12-01d1t08.wav
     8:55.29       94442252    ---   --   -----   gd79-12-01d1t09.wav
     6:07.64       64889372    ---   --   -----   gd79-12-01d2t01.wav
     7:37.74       80788892    ---   --   -----   gd79-12-01d2t02.wav
     8:43.20       92304284    ---   --   -----   gd79-12-01d2t03.wav
    15:59.09      169188812    ---   --   -----   gd79-12-01d2t04.wav
     7:19.74       77613692    ---   --   -----   gd79-12-01d2t05.wav
     7:08.47       75609788    ---   --   -----   gd79-12-01d2t06.wav
     4:46.01       50452796    ---   --   -----   gd79-12-01d2t07.wav
    11:20.14      119984972    ---   --   -----   gd79-12-01d2t08.wav
     9:07.56       96622556    ---   --   -----   gd79-12-01d3t01.wav
    11:19.41      119872076    ---   --   -----   gd79-12-01d3t02.wav
     8:25.26       89143196    ---   --   -----   gd79-12-01d3t03.wav
     4:51.32       51407708    ---   --   -----   gd79-12-01d3t04.wav
   176:37.71     1869478716 B                     (totals for 21 files)
Show Checksums
ffp
gd79-12-01d1t01.flac:7952ea0e31454f138e6b19ffee8fea6e
gd79-12-01d1t02.flac:25e99aee7bdd2acab232d09a135e1933
gd79-12-01d1t03.flac:bc996c992a66b25a8d805b2f9620eaea
gd79-12-01d1t04.flac:9d15410ed18f2199ec9a6fe267548888
gd79-12-01d1t05.flac:717fd0661b387126668980538f4fbd35
gd79-12-01d1t06.flac:9dd77e145a1e9cbdb62f8b7b60c8e94d
gd79-12-01d1t07.flac:83195b44dea9ab5d7beb51b3ad49c15a
gd79-12-01d1t08.flac:bf9846013cffd528c05d6f006259ef11
gd79-12-01d1t09.flac:49a077b7aa6bf1b4070476eef697eefa
gd79-12-01d2t01.flac:1b61784583a822b855b1260f476898c1
gd79-12-01d2t02.flac:a7b116582d423e38b37ef0c3571724cd
gd79-12-01d2t03.flac:f5dcb77acffb81d94cef95b295b5a747
gd79-12-01d2t04.flac:a1776deb7290e102c258d9a99e1217af
gd79-12-01d2t05.flac:de01ffdada78e47db4bde62d21a1ed59
gd79-12-01d2t06.flac:cbf9e6f23f8d922992421117ca41c946
gd79-12-01d2t07.flac:88ad936da80cefd83a8c410a5a281481
gd79-12-01d2t08.flac:da17bda81ebcef7de32cbb3873831078
gd79-12-01d3t01.flac:1b4bbde3973fae54af35a04ec497819f
gd79-12-01d3t02.flac:007641ef573ca9f384c7ee440d9ca247
gd79-12-01d3t03.flac:29b430d960e9f0da5d8589902b66bff2
gd79-12-01d3t04.flac:67bd074e267ee8a1a7c00fc659522ae6
flac-md5
2be526d6e518ca5e76610aedf10af9f9 *gd79-12-01d1t01.flac
dddc5ce0aa2d8bd43abbbe6d31debc16 *gd79-12-01d1t02.flac
68af75edaebc86d40f314448ee96fc4e *gd79-12-01d1t03.flac
ff52d8dc9d48d2ce79541728ad01ca40 *gd79-12-01d1t04.flac
3cf57711b87559ac7b6515fb80c03e14 *gd79-12-01d1t05.flac
a17094e060e21bc1fef83bddfc8ce3d3 *gd79-12-01d1t06.flac
1a925c3a11d1ff2ce99da1697f2ee4de *gd79-12-01d1t07.flac
f38cd68a01027eec35f9ca3454f2370b *gd79-12-01d1t08.flac
8481b39854be82dbcf070e4ecd164662 *gd79-12-01d1t09.flac
5db000699016d13245c3347a9affcfc5 *gd79-12-01d2t01.flac
624021e263670a4f302fb1bfca2df028 *gd79-12-01d2t02.flac
4df706e0da71f1001a197dea2e03e7c7 *gd79-12-01d2t03.flac
5d994b6ed012fb1708425afdcd4386dd *gd79-12-01d2t04.flac
bbce03d3870511ffb8a7c27fb643e74c *gd79-12-01d2t05.flac
50c6ba5091f5f73eaac8e3927bda8b17 *gd79-12-01d2t06.flac
896cd17cb6d3bea1f6f9e85004d2f60a *gd79-12-01d2t07.flac
c8e020822703e55906025cc9692a18e0 *gd79-12-01d2t08.flac
6e4cea34d305aab36cb3d887cf5631a2 *gd79-12-01d3t01.flac
3c324fbfd9777c189ca3d2dc41556703 *gd79-12-01d3t02.flac
dfead6ec14cc259f7b9f2832eaca5dfc *gd79-12-01d3t03.flac
8ad0a741bff47f293926fedef7925af4 *gd79-12-01d3t04.flac

Comments
Add Comment
Other Sources (comments)
set 2; MSR > Cassette > DAT... (0) mixed source: set 1: SBD>... (2) flac16; Recording... (1) flac16; AUD (unknown... (0) flac16; Sick Bits... (3) flac16; Source:... (0) flac16; Recording by... (0) flac16; Low-gen... (0)
Date User Comment