Browse Collections Artists Sources   Search Dates

Add Show    List Management    Help


Grateful Dead 05/02/80
Hampton Coliseum, Hampton, VA
Comments Add Comment    Source Collectors    Add to Collection    Add to Want List    History
Source # 96450 Other Sources
Entered by Steve Swartz
Checksums ffp , flac-md5
Disc Counts 2 / 2
Media Size
Date Circulated
Date Added
12/16/2008
12/21/2008
Source Summary flac16; MAC = 2 x Maxell XLII C90; 2 x Nakamichi CM700 => Sony TC-D5M >> MAC >> Nakamichi DR-1 => Grace Design Lunatec V3 >> Korg MR-1000 >> DSF [1-bit 5 -6448 MHz Stereo] >> Korg MR-1000 => Korg AudioGate >> WAV [24/96] Taped By: Barry Glassberg Transfer By: Adam Egert Mastering By: Derek McCabe MOTB0085 
  Archive
Source Information - Download Text | Download Zip
MOTB Release: 0085 16/44.1
Release Date: 2008-12-05
Band: Grateful Dead
Date: 1980-05-02 (Friday)
Venue: Hampton Coliseum
Location: Hampton, VA
Analog Audience Source: FOB Master Cassettes (MAC)
Medium Stock Brands: MAC = 2 x Maxell XLII C90,
Analog Lineage: 2 x Nakamichi CM700 => Sony TC-D5M >> MAC
Analog Sound Preservation: MAC >> Nakamichi DR-1 => Grace Design Lunatec V3 >> Korg MR-1000 >> DSF [1-bit 5 -6448 MHz Stereo] >> Korg MR-1000 => Korg AudioGate >> WAV [24/96]
Taped By: Barry Glassberg
Transfer By: Adam Egert
Mastering By: Derek McCabe

Set 1
d1t01 - Minglewood Blues
d1t02 - Loser
d1t03 - Mama Tried >
d1t04 - Mexicali Blues
d1t05 - Friend of the Devil
d1t06 - Far From Me
d1t07 - Looks Like Rain
d1t08 - Althea
d1t09 - The Music Never Stopped

Set 2
d1t01 - Alabama Getaway >
d1t02 - Feel Like a Stranger >
d1t03 - Eyes of the World >
d1t04 - Drums >
d1t05 - Space > Not Fade Away >
d1t06 - Stella Blue >
d1t07 - I Need a Miracle >
d1t08 - Bertha >
d1t09 - Good Lovin'

Encore:
d1t10 - Johnny B - Goode

Notes:
Please note that ALL fades between songs were done by Barry on the master tape during the show - to conserve tape - We left them all exactly as is, rather than cross fade them - Some of the fade outs at the end of the first set songs are abrubt with loud crowd cheering, and then the next song fades in with very little crowd noise - A cross fade here would sound very unnatural, plus if this source is ever needed for a matrix, this aud is the complete master tape - The only cross fade was applied during the tape flip in drums -

Shntool:
    length     expanded size    cdr  WAVE problems  fmt   ratio  filename
     7:50.73       83079740 B   ---   --   ---xx   flac  0.6452  gd1980-05-02.fob.glassberg.d1t01.flac
     8:19.19       88068332 B   ---   --   ---xx   flac  0.6130  gd1980-05-02.fob.glassberg.d1t02.flac
     3:38.22       38506988 B   ---   --   ---xx   flac  0.6051  gd1980-05-02.fob.glassberg.d1t03.flac
     6:23.45       67667084 B   ---   --   ---xx   flac  0.6148  gd1980-05-02.fob.glassberg.d1t04.flac
     8:49.73       93487340 B   ---   --   ---xx   flac  0.6238  gd1980-05-02.fob.glassberg.d1t05.flac
     4:34.42       48432428 B   ---   --   ---xx   flac  0.6439  gd1980-05-02.fob.glassberg.d1t06.flac
     8:23.17       88769228 B   ---   --   ---xx   flac  0.5857  gd1980-05-02.fob.glassberg.d1t07.flac
     8:52.01       93847196 B   ---   --   ---xx   flac  0.5983  gd1980-05-02.fob.glassberg.d1t08.flac
     7:34.66       80240876 B   ---   --   ---xx   flac  0.6520  gd1980-05-02.fob.glassberg.d1t09.flac
     5:58.38       63240620 B   ---   --   ---xx   flac  0.6401  gd1980-05-02.fob.glassberg.d2t01.flac
     7:54.30       83684204 B   ---   --   ---xx   flac  0.6441  gd1980-05-02.fob.glassberg.d2t02.flac
     7:35.12       80290268 B   ---   --   ---xx   flac  0.6364  gd1980-05-02.fob.glassberg.d2t03.flac
     8:53.29       94089452 B   ---   --   ---xx   flac  0.5709  gd1980-05-02.fob.glassberg.d2t04.flac
     6:57.48       73671740 B   ---   --   ---xx   flac  0.6202  gd1980-05-02.fob.glassberg.d2t05.flac
     8:56.74       94724492 B   ---   --   ---xx   flac  0.5707  gd1980-05-02.fob.glassberg.d2t06.flac
     3:56.35       41712764 B   ---   --   ---xx   flac  0.6659  gd1980-05-02.fob.glassberg.d2t07.flac
     5:43.74       60679292 B   ---   --   ---xx   flac  0.6619  gd1980-05-02.fob.glassberg.d2t08.flac
     6:55.02       73210748 B   ---   --   ---xx   flac  0.6757  gd1980-05-02.fob.glassberg.d2t09.flac
     5:30.19       58256732 B   ---   --   ---xx   flac  0.6774  gd1980-05-02.fob.glassberg.d2t10.flac
   132:48.44     1405659524 B                            0.6248  (19 files)

No errors occured.
Show Checksums
ffp
gd1980-05-02.fob.glassberg.d1t01.flac:7c491f4cc2a4179c92dcc18c5713e86e
gd1980-05-02.fob.glassberg.d1t02.flac:c083290c9456c1d791943dc0d936d159
gd1980-05-02.fob.glassberg.d1t03.flac:b84322173340f2fb84d6b8c36c7b0aa0
gd1980-05-02.fob.glassberg.d1t04.flac:19850cf66c2828389dcc44ee96a3b2ee
gd1980-05-02.fob.glassberg.d1t05.flac:0b78ed6df09832ca263fa85a86cc5774
gd1980-05-02.fob.glassberg.d1t06.flac:490dbedb24fe3b2ace993ae5ba80523d
gd1980-05-02.fob.glassberg.d1t07.flac:177c52bfc6c5d418a002563f8bbe4b4a
gd1980-05-02.fob.glassberg.d1t08.flac:4264a8072bfeafb374f36bb707f22251
gd1980-05-02.fob.glassberg.d1t09.flac:f2b2bbf681acbac7f1244d1ab32058fc
gd1980-05-02.fob.glassberg.d2t01.flac:9ba3b6af0f418c891f37d034388ab99e
gd1980-05-02.fob.glassberg.d2t02.flac:e083402c707dd03fd6d3390be6c83767
gd1980-05-02.fob.glassberg.d2t03.flac:cc3f8e34fba039793ffdcb7bad544038
gd1980-05-02.fob.glassberg.d2t04.flac:dad0371f35bed85dc8a623c9ed65faf5
gd1980-05-02.fob.glassberg.d2t05.flac:c5d29ac7aa59dc745c6e9b06544991c9
gd1980-05-02.fob.glassberg.d2t06.flac:05b0e7f69c9105d468ed7b76e9e943c6
gd1980-05-02.fob.glassberg.d2t07.flac:bf9c9c246dd845fc260ca6a776c29913
gd1980-05-02.fob.glassberg.d2t08.flac:b6de02485a9255841ea8ecff302472b2
gd1980-05-02.fob.glassberg.d2t09.flac:26612a9fe4994e37961b6ba2d1966021
gd1980-05-02.fob.glassberg.d2t10.flac:5c1d9a9fe85f9aff0419cae32548a681
flac-md5
724b4f2c6a793ae106e2d1a863de615c *gd1980-05-02.fob.glassberg.d1t01.flac
51b6c91b3980bfc9d273658df60b2b25 *gd1980-05-02.fob.glassberg.d1t02.flac
e625ba968496799b71616dd712530a06 *gd1980-05-02.fob.glassberg.d1t03.flac
30ae2824d88227c6b765edd7324bff9c *gd1980-05-02.fob.glassberg.d1t04.flac
2884ad626e6af7026e2ff69706a62591 *gd1980-05-02.fob.glassberg.d1t05.flac
bdb6947e0b45393b778897cc89816ab8 *gd1980-05-02.fob.glassberg.d1t06.flac
4230a50141d7f7865234b64f66f25b9e *gd1980-05-02.fob.glassberg.d1t07.flac
a3cfa0918642d7ac8026476cf642cc75 *gd1980-05-02.fob.glassberg.d1t08.flac
f81ae76dff63afa27e1f48754d2acc28 *gd1980-05-02.fob.glassberg.d1t09.flac
3a9c722e6311d8d5cf5d5b0b57065236 *gd1980-05-02.fob.glassberg.d2t01.flac
be4d5f848d5f2277a5fbba3ffe55c4b9 *gd1980-05-02.fob.glassberg.d2t02.flac
a616e5a3b49565db3fdff271cb36273c *gd1980-05-02.fob.glassberg.d2t03.flac
e533197ad05949b367eda50dfe236b64 *gd1980-05-02.fob.glassberg.d2t04.flac
8745d3ef830750edf2738de40872c550 *gd1980-05-02.fob.glassberg.d2t05.flac
782ebdc0e4a34e207e309fa7c5ab4271 *gd1980-05-02.fob.glassberg.d2t06.flac
6b19a737b3a25dce965e79e276a68eef *gd1980-05-02.fob.glassberg.d2t07.flac
c0e7d9e1b7e7094104590a37c9cc9a31 *gd1980-05-02.fob.glassberg.d2t08.flac
eba1a9e1cf177508c3a08aeeaebfc49a *gd1980-05-02.fob.glassberg.d2t09.flac
81b53cc04891a1b5828a2351b33c33d2 *gd1980-05-02.fob.glassberg.d2t10.flac

Comments
Add Comment
Other Sources (comments)
Recordings by John Hance... (1) flac16; Recording by... (0) flac24; MAC = 2 x... (0) flac16; (FOB) Beyer... (1) flac24; (FOB) Beyer... (0) flac24; (FOB) Beyer... (0) flac24; Beyer... (0) flac16; Recorded By... (0)
Date User Comment