Browse Collections Artists Sources   Search Dates

Add Show    List Management    Help


Grateful Dead 03/30/80
Capitol Theater, Passaic, NJ
Comments Add Comment    Source Collectors    Add to Collection    Add to Want List    History
Source # 96455 Other Sources
Entered by Steve Swartz
Checksums ffp , flac-md5
Disc Counts 2 / 3
Media Size
Date Circulated
Date Added
12/16/2008
12/21/2008
Source Summary flac16; MTX; 2 x Nakamichi CM700 => Sony TC-D5M >> MAC >> Nakamichi DR-1 => Grace Design Lunatec V3 >> Korg MR-1000 >> DSF [1-bit 5 -6448 MHz Stereo] >> Korg MR-1000 => Korg AudioGate >> WAV [24/96] Taped By: Barry Glassberg Transfer By: Adam Egert Mastering By: Derek McCabe Sbd Source: 27752 flac16; SBD> Cassette Master> Dat, plus patch from FOB Nak 700> Cass; Transfer: Dat (Sony D8)> RME Hammerfall Digiface> Sony Vaio C1VP> Samplitude v7.02 Professional> FLAC; Transferred and Edited By Charlie Miller 
  Archive
Source Information - Download Text | Download Zip
MTX Release:  16/44.1
Release Date: 2008-11-25
Band: Grateful Dead
Date: 1980-03-30 (Sunday)
Venue: The Capitol Theater
Location: Passaic, NJ
Analog Audience Source: FOB Master Cassettes (MAC)
Medium Stock Brands: MAC = 3 x Maxell XLII C90, 1 x x Maxell XLII C60
Analog Lineage: 2 x Nakamichi CM700 => Sony TC-D5M >> MAC
Analog Sound Preservation: MAC >> Nakamichi DR-1 => Grace Design Lunatec V3 >> Korg MR-1000 >> DSF [1-bit 5 -6448 MHz Stereo] >> Korg MR-1000 => Korg AudioGate >> WAV [24/96]
Taped By: Barry Glassberg
Transfer By: Adam Egert
Mastering By: Derek McCabe
SBD MAstering: Charlie Miller
SBD Source: Miller 92666

Set 1:
d1t01 - Alabama Getaway >
d1t02 - Promised Land
d1t03 - Peggy-O
d1t04 - Cassidy
d1t05 - Loser >
d1t06 - El Paso
d1t07 - Far From Me
d1t08 - Tennessee Jed
d1t09 - Minglewood Blues
d2t01 - Althea
d2t02 - Lost Sailor >
d2t03 - Saint of Circumstance/

Set 2:
d2t04 - Scarlet Begonias >
d2t05 - Fire On The Mountain
d3t01 - Estimated Prophet >
d3t02 - Eyes Of The World >
d3t03 - Drums >
d3t04 - Black Peter >
d3t05 - Sugar Magnolia

Encore:
d3t06 - U.S. Blues

Notes: This is a killer tape... Enjoy Great edit.. All Circulating sources have cuts at end of St. Of Circumstance... No patch Available

shntool:
    length     expanded size    cdr  WAVE problems  fmt   ratio  filename
     6:09.66       65246876 B   ---   --   ---xx   flac  0.5905  gd1980-03-30.mtx.glassberg.miller.d1t01.flac
     6:04.49       64324892 B   ---   --   ---xx   flac  0.5874  gd1980-03-30.mtx.glassberg.miller.d1t02.flac
     9:19.53       98732300 B   ---   --   ---xx   flac  0.5368  gd1980-03-30.mtx.glassberg.miller.d1t03.flac
     6:50.72       72493388 B   ---   --   ---xx   flac  0.5708  gd1980-03-30.mtx.glassberg.miller.d1t04.flac
     6:43.63       71237420 B   ---   --   ---xx   flac  0.5872  gd1980-03-30.mtx.glassberg.miller.d1t05.flac
     6:13.56       65928956 B   ---   --   ---xx   flac  0.5582  gd1980-03-30.mtx.glassberg.miller.d1t06.flac
     5:45.05       60869804 B   ---   --   ---xx   flac  0.5604  gd1980-03-30.mtx.glassberg.miller.d1t07.flac
     5:30.23       58266140 B   ---   --   ---xx   flac  0.5892  gd1980-03-30.mtx.glassberg.miller.d1t08.flac
    10:14.50      108427244 B   ---   --   ---xx   flac  0.5639  gd1980-03-30.mtx.glassberg.miller.d1t09.flac
    10:50.20      114707084 B   ---   --   ---xx   flac  0.5491  gd1980-03-30.mtx.glassberg.miller.d2t01.flac
     6:29.21       68669036 B   ---   --   ---xx   flac  0.5583  gd1980-03-30.mtx.glassberg.miller.d2t02.flac
     7:00.40       74182124 B   ---   --   ---xx   flac  0.6088  gd1980-03-30.mtx.glassberg.miller.d2t03.flac
    10:22.72      109890188 B   ---   --   ---xx   flac  0.5954  gd1980-03-30.mtx.glassberg.miller.d2t04.flac
    12:46.22      135174188 B   ---   --   ---xx   flac  0.5651  gd1980-03-30.mtx.glassberg.miller.d2t05.flac
    11:05.18      117348380 B   ---   --   ---xx   flac  0.6059  gd1980-03-30.mtx.glassberg.miller.d3t01.flac
    15:22.60      162781964 B   ---   --   ---xx   flac  0.5944  gd1980-03-30.mtx.glassberg.miller.d3t02.flac
     6:32.61       69292316 B   ---   --   ---xx   flac  0.5037  gd1980-03-30.mtx.glassberg.miller.d3t03.flac
    10:45.61      113921516 B   ---   --   ---xx   flac  0.5619  gd1980-03-30.mtx.glassberg.miller.d3t04.flac
     8:22.32       88628108 B   ---   --   ---xx   flac  0.6250  gd1980-03-30.mtx.glassberg.miller.d3t05.flac
     7:34.20       80132684 B   ---   --   ---xx   flac  0.6070  gd1980-03-30.mtx.glassberg.miller.d3t06.flac
   170:05.39     1800254608 B                            0.5766  (20 files)

No errors occured.
Show Checksums
ffp
gd1980-03-30.mtx.glassberg.miller.d1t01.flac:62a71cc1da304a8971ac00094dac3c0b
gd1980-03-30.mtx.glassberg.miller.d1t02.flac:8569839709798ca0df8feabda36a0523
gd1980-03-30.mtx.glassberg.miller.d1t03.flac:da0412969b785dd1ef55af213836a703
gd1980-03-30.mtx.glassberg.miller.d1t04.flac:70fce6cb7f8f8e193af8d2010899be1c
gd1980-03-30.mtx.glassberg.miller.d1t05.flac:2ae4264776dd53e315bec557a831c4e3
gd1980-03-30.mtx.glassberg.miller.d1t06.flac:90d56b7b4c9aaec5de4b847a58e1cc19
gd1980-03-30.mtx.glassberg.miller.d1t07.flac:0ef31e66ebfe454f310a33635ab38b0a
gd1980-03-30.mtx.glassberg.miller.d1t08.flac:6a9c8672fefacf674c6835d8063f4fa0
gd1980-03-30.mtx.glassberg.miller.d1t09.flac:5794546274cf004df02fbc17aee389d2
gd1980-03-30.mtx.glassberg.miller.d2t01.flac:39ec3111a261628d9bab38478777f6dc
gd1980-03-30.mtx.glassberg.miller.d2t02.flac:e97fc4ede0f35684349d2c043eb6d844
gd1980-03-30.mtx.glassberg.miller.d2t03.flac:de4fbece59164a89fe55e6a4152df29a
gd1980-03-30.mtx.glassberg.miller.d2t04.flac:cc390cfd82757daec5bbdf2cb3b0d6a3
gd1980-03-30.mtx.glassberg.miller.d2t05.flac:dd743faf5fdb317e9f028a2960fb3142
gd1980-03-30.mtx.glassberg.miller.d3t01.flac:2ced03fcc8a4695bea593e05985775d9
gd1980-03-30.mtx.glassberg.miller.d3t02.flac:1dafbc8e07f3aa3ccc557b9bc7f954f8
gd1980-03-30.mtx.glassberg.miller.d3t03.flac:f6933956d1f0275e518cbd21c3f12156
gd1980-03-30.mtx.glassberg.miller.d3t04.flac:180b5b6aadc309311ceddae54efe8f63
gd1980-03-30.mtx.glassberg.miller.d3t05.flac:d45cd29055c3e0c1f5ffc34a0985296a
gd1980-03-30.mtx.glassberg.miller.d3t06.flac:954da20e693b8819deb6d3aee8220e84
flac-md5
2905aebcf2fdf5ae19f6530ede0a4216 *gd1980-03-30.mtx.glassberg.miller.d1t01.flac
554a12e682ca8995cf18ac8333ad12ac *gd1980-03-30.mtx.glassberg.miller.d1t02.flac
4d1234119ac7304f2bd503cbf2c0c983 *gd1980-03-30.mtx.glassberg.miller.d1t03.flac
b93f975ab6d6a516bdb15c624ee27fc1 *gd1980-03-30.mtx.glassberg.miller.d1t04.flac
28107576e88ace866f7b2f9a4e09662c *gd1980-03-30.mtx.glassberg.miller.d1t05.flac
46a9d2b654eb0fdef91f4f5148888b41 *gd1980-03-30.mtx.glassberg.miller.d1t06.flac
a259484c78b1752e4ca0d5dce139fb24 *gd1980-03-30.mtx.glassberg.miller.d1t07.flac
7563308f313d225bf7b08bded8dbfb3b *gd1980-03-30.mtx.glassberg.miller.d1t08.flac
7b03e65b0d0aef5b19520f3223a0bce7 *gd1980-03-30.mtx.glassberg.miller.d1t09.flac
44600f5e1f85af492302d519935e9f27 *gd1980-03-30.mtx.glassberg.miller.d2t01.flac
5eebc7ad40ee044aaf3b5a4f50325945 *gd1980-03-30.mtx.glassberg.miller.d2t02.flac
9a23bd504093250e9eca0eeecda4fb80 *gd1980-03-30.mtx.glassberg.miller.d2t03.flac
d9a8782a987c1a7f70b2ef9f30e04716 *gd1980-03-30.mtx.glassberg.miller.d2t04.flac
d94ea86df28e78554276ea6b060a3d56 *gd1980-03-30.mtx.glassberg.miller.d2t05.flac
6ab35bb4d41a3cde616cac4c103f019b *gd1980-03-30.mtx.glassberg.miller.d3t01.flac
67214a7f196f3307d00237a42c0acb50 *gd1980-03-30.mtx.glassberg.miller.d3t02.flac
ccfb5d8d8f1db5dcce82f11ae432307d *gd1980-03-30.mtx.glassberg.miller.d3t03.flac
c7d3dcf1a6f3be9729fcbefca6c6d22c *gd1980-03-30.mtx.glassberg.miller.d3t04.flac
34f453afd6d94790a098d5b0516ddaa2 *gd1980-03-30.mtx.glassberg.miller.d3t05.flac
1a6b6f8138361c813d34ce67d7e6098f *gd1980-03-30.mtx.glassberg.miller.d3t06.flac

Comments
Add Comment
Other Sources (comments)
Recording by Barry... (0) flac16; SBD>... (0) flac16; Recording... (0) flac16; 2 x... (0) flac24; 2 x... (0)
Date User Comment