Browse Collections Artists Sources   Search Dates

Add Show    List Management    Help


Grateful Dead 10/15/94
Madison Square Garden, New York, NY
Comments Add Comment    Source Collectors    Add to Collection    Add to Want List    History
Source # 96457 Other Sources
Entered by dr.unclear
Checksums ffp , flac-md5 , st5
Disc Counts 2 / 3
Media Size
Date Circulated
Date Added
12/21/2008
12/21/2008
Source Summary flac16; Source: aud > Nak 300 shotguns > WMD-6 > mac Transfer: mac > Nakamichi CR-5A > EMU 1212M > 24/96 Wave > Adobe Audition > Wavelab with iZotope Ozone > iZotope RX Advanced > 16/44.1 Wave > CD Wave > TLH > flac16 
  Archive
Source Information - Download Text | Download Zip
Grateful Dead
Madison Square Garden
New York, NY
10/15/94


Source: aud > Nak 300 shotguns > WMD-6 > mac
Transfer: mac > Nakamichi CR-5A > EMU 1212M > 24/96 Wave > Adobe Audition >
                Wavelab with iZotope Ozone > iZotope RX Advanced > 16/44.1 Wave > CD Wave > TLH > flac16


Disc 1
set I

01   tuning
02   Shakedown Street
03   Little Red Rooster
04   crowd/tuning
05   Stagger Lee
06   crowd/tuning
07   Black Throated Wind #
08   Just Like Tom Thumb's Blues
09   Candyman
10   Easy Answers
11   Deal


Disc 2
set II

01   tuning
02   Here Comes Sunshine
03   Victim Or The Crime >
04   Way To Go Home
05   New Speedway Boogie >
06   Drums >


Disc 3
set II cont'd

01   Space >
02   The Last Time >
03   Standing On The Moon >
04   One More Saturday Night

encore

05   I Want To Tell You


Notes:

- tape flip after Black Throated Wind crossfaded
- Space patched 6:16 - 6:25
   patch source: Nakamichi 300 Shotguns > Awia DAT > CDR > EAC (secure) > mkwACT > SHN (shnid 8043)
- seamless change between disc 2 and 3

Comments:

# Weir on acoustic gutiar
----------------------------------------------------------

- Taped by John Bleich from Section 11, Row P, Seat 8

- Transfer by BGreen

- Edited by SIRMick

- Brought To You By Live Music Preservation Project

- Seeded to www.shnflac.net - December 2008

- questions/comments, please contact [email protected]

-----------------------------------------------------------

Shntool output:

    length     expanded size   cdr  WAVE problems filename
     3:45.72       39859388    ---   --   ---xx   gd1994-10-15d1t01.flac
    15:59.65      169320524    ---   --   ---xx   gd1994-10-15d1t02.flac
     7:28.73       79198940    ---   --   ---xx   gd1994-10-15d1t03.flac
     1:24.68       14977580    ---   --   ---xx   gd1994-10-15d1t04.flac
     7:51.47       83194988    ---   --   ---xx   gd1994-10-15d1t05.flac
     1:02.58       11073260    ---   --   ---xx   gd1994-10-15d1t06.flac
     6:28.39       68534972    ---   --   ---xx   gd1994-10-15d1t07.flac
     6:03.39       64124972    ---   --   ---xx   gd1994-10-15d1t08.flac
     6:26.30       68161004    ---   --   ---xx   gd1994-10-15d1t09.flac
     6:40.48       70672940    ---   --   ---xx   gd1994-10-15d1t10.flac
     9:06.20       96361484    ---   --   ---xx   gd1994-10-15d1t11.flac
     1:29.11       15725516    ---   --   ---xx   gd1994-10-15d2t01.flac
     6:08.31       64988156    ---   --   ---xx   gd1994-10-15d2t02.flac
     9:00.37       95343068    ---   --   ---xx   gd1994-10-15d2t03.flac
     6:26.70       68255084    ---   --   ---xx   gd1994-10-15d2t04.flac
    10:48.02      114311948    ---   --   ---xx   gd1994-10-15d2t05.flac
    12:01.73      127356140    ---   --   ---xx   gd1994-10-15d2t06.flac
    13:00.05      137603804    ---   --   ---xx   gd1994-10-15d3t01.flac
     6:39.63       70531820    ---   --   ---xx   gd1994-10-15d3t02.flac
     9:48.59      103862012    ---   --   ---xx   gd1994-10-15d3t03.flac
     5:58.32       63226508    ---   --   ---xx   gd1994-10-15d3t04.flac
     5:16.49       55857692    ---   --   ---xx   gd1994-10-15d3t05.flac
   158:58.16     1682541800 B                     (totals for 22 files, 0.5693 overall compression ratio)
Show Checksums
ffp
gd1994-10-15d1t01.flac:86aa7dd845c07c49c5cb6bedbb2b5099
gd1994-10-15d1t02.flac:f52a6ab9d42c3f8882dd7d29d5f265a2
gd1994-10-15d1t03.flac:e8d95c0b01a0cec2b8617cc76ce01c0e
gd1994-10-15d1t04.flac:4ff796747063cffdf4b3e842184d9604
gd1994-10-15d1t05.flac:403315898b3a86d6f5f8e3d48203682f
gd1994-10-15d1t06.flac:4fd932e37f4fdde12964a6cdbb782948
gd1994-10-15d1t07.flac:788de980b7a0c145987f3c51ebc3c2b3
gd1994-10-15d1t08.flac:e3378a9ed42086b42c13a824317af7e1
gd1994-10-15d1t09.flac:ee5a341e672a8f2eb7e898a1023a8884
gd1994-10-15d1t10.flac:cd54494549456e7fef75a6bfe27ec96a
gd1994-10-15d1t11.flac:cc0eff4cb3811a7100d88ddf59e1102a
gd1994-10-15d2t01.flac:669cf7430c3acfc87240ad6ea19a4bd7
gd1994-10-15d2t02.flac:f768ed3e910da81a2fff7b3a65470f77
gd1994-10-15d2t03.flac:481568390e43d8ccf8d34cf872637d8f
gd1994-10-15d2t04.flac:5749851709adca69a55f63b5e89f43e5
gd1994-10-15d2t05.flac:10c4cf3bb0fc6337181b22ea1ef09fea
gd1994-10-15d2t06.flac:98102c68101339dc51f128cdfb6b77e9
gd1994-10-15d3t01.flac:9f54afd76cf47710c9064294a14558a7
gd1994-10-15d3t02.flac:c421f39c28ae6fea46042711d138701d
gd1994-10-15d3t03.flac:f16190d83e9dc67d5ea3fa6b1388fb9d
gd1994-10-15d3t04.flac:2d84002c455ab8ff5f5e8405c3f2b166
gd1994-10-15d3t05.flac:85576a217b18b0114d88af4adabac01b
flac-md5
48aa6fe87bdc78ce5849ce95ce61deca *gd1994-10-15d1t01.flac
797b4cfc21e5cfc9df34e441d9b24646 *gd1994-10-15d1t02.flac
9ade8d5eccb4936c7abf831c54e54a22 *gd1994-10-15d1t03.flac
76048fa01c033616ecc473c18b62d761 *gd1994-10-15d1t04.flac
191bbabedd6a79d73626ac94e76e2c66 *gd1994-10-15d1t05.flac
8e53f87d221481760726c6cc9ebea8ad *gd1994-10-15d1t06.flac
b5f4b6ed4aa2636ebb0ed8803eda8965 *gd1994-10-15d1t07.flac
7c1bb933ba6b6d4c1c9aaa60093bbff1 *gd1994-10-15d1t08.flac
d4e7c8e5a6532fe8a6028a7a1d2ef956 *gd1994-10-15d1t09.flac
36dfc04ebb98739974f58dac699f2177 *gd1994-10-15d1t10.flac
93e0f25f42b9ac97e8248c5f17bec14f *gd1994-10-15d1t11.flac
6e8549a4571b5f86ffc9fddba0a33305 *gd1994-10-15d2t01.flac
8e2118c1b0312a6c356c89f936db4b32 *gd1994-10-15d2t02.flac
1b046f5d27109f1831ac3ed4bc47179f *gd1994-10-15d2t03.flac
4c228cb8a1fb05a6e6b4319c94706a82 *gd1994-10-15d2t04.flac
c89791a31cdd0a4691eba558c39fb362 *gd1994-10-15d2t05.flac
58b1edd3f36698538f523659d4635323 *gd1994-10-15d2t06.flac
308753104402d77542e8a939d416f3e4 *gd1994-10-15d3t01.flac
eed43fb3b7553513e6d17b3d9d28c1e6 *gd1994-10-15d3t02.flac
7851046775db36e8466e4ee421706a6a *gd1994-10-15d3t03.flac
806fef64f841e6e827eebfa9acd9920b *gd1994-10-15d3t04.flac
1213b006bc3b1f4048a12fe6e9ff49cf *gd1994-10-15d3t05.flac
st5
86aa7dd845c07c49c5cb6bedbb2b5099 [shntool] gd1994-10-15d1t01.flac
f52a6ab9d42c3f8882dd7d29d5f265a2 [shntool] gd1994-10-15d1t02.flac
e8d95c0b01a0cec2b8617cc76ce01c0e [shntool] gd1994-10-15d1t03.flac
4ff796747063cffdf4b3e842184d9604 [shntool] gd1994-10-15d1t04.flac
403315898b3a86d6f5f8e3d48203682f [shntool] gd1994-10-15d1t05.flac
4fd932e37f4fdde12964a6cdbb782948 [shntool] gd1994-10-15d1t06.flac
788de980b7a0c145987f3c51ebc3c2b3 [shntool] gd1994-10-15d1t07.flac
e3378a9ed42086b42c13a824317af7e1 [shntool] gd1994-10-15d1t08.flac
ee5a341e672a8f2eb7e898a1023a8884 [shntool] gd1994-10-15d1t09.flac
cd54494549456e7fef75a6bfe27ec96a [shntool] gd1994-10-15d1t10.flac
cc0eff4cb3811a7100d88ddf59e1102a [shntool] gd1994-10-15d1t11.flac
669cf7430c3acfc87240ad6ea19a4bd7 [shntool] gd1994-10-15d2t01.flac
f768ed3e910da81a2fff7b3a65470f77 [shntool] gd1994-10-15d2t02.flac
481568390e43d8ccf8d34cf872637d8f [shntool] gd1994-10-15d2t03.flac
5749851709adca69a55f63b5e89f43e5 [shntool] gd1994-10-15d2t04.flac
10c4cf3bb0fc6337181b22ea1ef09fea [shntool] gd1994-10-15d2t05.flac
98102c68101339dc51f128cdfb6b77e9 [shntool] gd1994-10-15d2t06.flac
9f54afd76cf47710c9064294a14558a7 [shntool] gd1994-10-15d3t01.flac
c421f39c28ae6fea46042711d138701d [shntool] gd1994-10-15d3t02.flac
f16190d83e9dc67d5ea3fa6b1388fb9d [shntool] gd1994-10-15d3t03.flac
2d84002c455ab8ff5f5e8405c3f2b166 [shntool] gd1994-10-15d3t04.flac
85576a217b18b0114d88af4adabac01b [shntool] gd1994-10-15d3t05.flac

Comments
Add Comment
Other Sources (comments)
Nak 300 Shotguns> Awia DAT>... (0) set 1; SBD (FM GDH)> DAT>... (0) flac16; SBD> Dat>... (0) SBD -> Dat -> Sonic... (0) flac16; Recorded FOB... (0) flac16;... (0) flac16; SBD/AUD... (0) flac16/48kHz; Set 1... (0) flac16 48khz... (0)
Date User Comment