Browse Collections Artists Sources   Search Dates

Add Show    List Management    Help


Grateful Dead 05/15/83
Greek Theatre, U. Of California, Berkeley, CA
Comments Add Comment    Source Collectors    Add to Collection    Add to Want List    History
Source # 96565 Other Sources
Entered by Matt Vernon
Checksums ffp , flac-md5
Disc Counts 2 / 3
Media Size
Date Circulated
Date Added
12/27/2008
12/27/2008
Source Summary flac16; Source: Audience Recording Lineage: 3 Nak 700's (L & R Cardiods, Center Omni - 3 DB Low Pass filter)> -15 db pads > 3 mic mixer Preamp> Patchbay > Sony D6 > MAC (Dolby B ) > CR-5A > HD-P2 > 24/96 Wave > Adobe Audition > Wavelab with iZotope Ozone and Waves RBass > iZotope RX Advanced > 16/44.1 wave > CD Wave > TLH > flac16 
  Archive
Source Information - Download Text | Download Zip
Grateful Dead
Greek Theatre, University of California
Berkeley, CA
05/15/83

Source: Audience Recording
Lineage: 3 Nak 700's (L & R Cardiods, Center Omni - 3 DB Low Pass filter)> -15 db pads >  3 mic mixer Preamp> Patchbay >
                  Sony D6 > MAC (Dolby B ) > CR-5A > HD-P2 >  24/96 Wave > Adobe Audition > Wavelab with iZotope Ozone and
                  Waves RBass > iZotope RX Advanced > 16/44.1 wave > CD Wave > TLH > flac16


Disc 1
set I

01   tuning
02   Touch Of Grey
03   New Minglewood Blues
04   crowd/tuning
05   Ramble On Rose
06   Cassidy
07   Brown Eyed Women
08   crowd/tuning
09   Hell In A Bucket
10   Althea
11   Looks Like Rain >
12   Deal


Disc 2
set II

01   Happy Birthday Dan Healy
02   Help On The Way >
03   Slipknot! >
04   Franklin's Tower >
05   Samson And Delilah
06   crowd/tuning
07   He's Gone >
08   Drums (1) >

disc 3
set II cont'd

01   Space (1) >
02   Truckin' >
03   Stella Blue >
04   Throwing Stones  >
05   Not Fade Away (2)

encore

06   It's All Over Now, Baby Blue


Notes:

- tape flips after Cassidy and, Samson And Delilah crossfaded
- Happy Birthday Dan Healy has problems in the left channel during the first 12 seconds
- the bass on this recording was extremely heavy and has been toned down
- seamless change between discs 2 and 3

patches:

Throwing Stones 7:54 - 8:07
Drums 9:33 - 9:44

patch source: (FOB) Sony ECM-220T -> Cassette Master (Sony TC-D5M/Fuji Metal Tape/Dolby B) (shnid 94516)

  
(1) with Flora Purim and Airto Moreira
(2) with John Cipollina

---------------------------------------------------------

- Taped by the anonymous taper, Jamie Poris, and the many other friends that made these happen

- Transferred  by Bgreen

- Edited by SIRMick

- First seeded to www.shnflac.net December/2008

- Brought To You By Live Music Preservation Project

- Have questions/comments, contact [email protected]


-----------------------------------------------------------

Shntool output:

    length     expanded size   cdr  WAVE problems filename
     2:07.55       22532204    ---   --   ---xx   gd1983-05-15d1t01.flac
     6:44.53       71390300    ---   --   ---xx   gd1983-05-15d1t02.flac
     8:23.49       88844492    ---   --   ---xx   gd1983-05-15d1t03.flac
     1:45.73       18693740    ---   --   ---xx   gd1983-05-15d1t04.flac
     7:54.37       83700668    ---   --   ---xx   gd1983-05-15d1t05.flac
     5:46.35       61116764    ---   --   ---xx   gd1983-05-15d1t06.flac
     5:21.65       56777324    ---   --   ---xx   gd1983-05-15d1t07.flac
     1:48.50       19168844    ---   --   ---xx   gd1983-05-15d1t08.flac
     5:40.21       60025436    ---   --   ---xx   gd1983-05-15d1t09.flac
     8:22.61       88696316    ---   --   ---xx   gd1983-05-15d1t10.flac
     8:31.38       90229820    ---   --   ---xx   gd1983-05-15d1t11.flac
     7:57.10       84166364    ---   --   ---xx   gd1983-05-15d1t12.flac
     1:06.48       11755340    ---   --   ---xx   gd1983-05-15d2t01.flac
     3:45.43       39791180    ---   --   ---xx   gd1983-05-15d2t02.flac
     5:08.57       54465308    ---   --   ---xx   gd1983-05-15d2t03.flac
    13:21.36      141381116    ---   --   ---xx   gd1983-05-15d2t04.flac
     7:30.05       79391804    ---   --   ---xx   gd1983-05-15d2t05.flac
     1:19.23       13989740    ---   --   ---xx   gd1983-05-15d2t06.flac
     9:15.17       97942028    ---   --   ---xx   gd1983-05-15d2t07.flac
    10:44.26      113662796    ---   --   ---xx   gd1983-05-15d2t08.flac
    17:49.63      188719820    ---   --   ---xx   gd1983-05-15d3t01.flac
     7:22.71       78135836    ---   --   ---xx   gd1983-05-15d3t02.flac
     9:24.21       99539036    ---   --   ---xx   gd1983-05-15d3t03.flac
     8:27.36       89519516    ---   --   ---xx   gd1983-05-15d3t04.flac
     8:49.57       93449708    ---   --   ---xx   gd1983-05-15d3t05.flac
     7:33.06       79923356    ---   --   ---xx   gd1983-05-15d3t06.flac
   182:04.06     1927008856 B                     (totals for 26 files, 0.5697 overall compression ratio)
Show Checksums
ffp
gd1983-05-15d1t01.flac:4eed14772e4e076526354a9e3285d46a
gd1983-05-15d1t02.flac:90f6522ba17a387968917424148b3a4a
gd1983-05-15d1t03.flac:b9de7793cba59a8c7421f3b0199e24f0
gd1983-05-15d1t04.flac:5b56ed30c330b203f53cc1b69a579eb2
gd1983-05-15d1t05.flac:b939ea47397cec91128c7b01cebcf94a
gd1983-05-15d1t06.flac:00dced78387c1d08c32b1d17d1904fc9
gd1983-05-15d1t07.flac:290ce97da4c463d5e584f591eba942b5
gd1983-05-15d1t08.flac:66c64d2d574fa8fb0e6f936fe1ba2e29
gd1983-05-15d1t09.flac:c7c27e50599cad4de4f014c9f6b7b130
gd1983-05-15d1t10.flac:c2d71f808a51340e9d0e3d2cd416e5ae
gd1983-05-15d1t11.flac:40b0dcddf9c3a63323ecbe918f980e01
gd1983-05-15d1t12.flac:59fd5e0f6d72d5b9556c7b1866233d0f
gd1983-05-15d2t01.flac:999f1e72e1b79c985d43977fa86125a4
gd1983-05-15d2t02.flac:00274e88d7dc5a8b4ed4a2d43abfd8f3
gd1983-05-15d2t03.flac:403b556d64a1691f14f53577f9a3b1bf
gd1983-05-15d2t04.flac:1d015f82b670336fc4aa507c512de29a
gd1983-05-15d2t05.flac:3604dc076447429a3288b8e7bfa20b66
gd1983-05-15d2t06.flac:faed546c1e76cd647be4f94970bebf4a
gd1983-05-15d2t07.flac:95d8e88283c081dcc3b6acad9be39cb2
gd1983-05-15d2t08.flac:4b65fb18b3dba445cb2a640704ef8da2
gd1983-05-15d3t01.flac:9595f35867fd95332d3da8d655874831
gd1983-05-15d3t02.flac:d3d5b718eab65c45d8f14d1bcfc6daae
gd1983-05-15d3t03.flac:f72d36ad82aeb74beb25ca049b0aeffd
gd1983-05-15d3t04.flac:3709b1c6ca4bebabf47866841e076765
gd1983-05-15d3t05.flac:1e19410f43b0451f3b1c3c84838cc4aa
gd1983-05-15d3t06.flac:b30b44b371d5d3a45584fd26f3d6111a
flac-md5
1741536e09b5999b23efdde0b2695aa6 *gd1983-05-15d1t01.flac
f6daa3726cf6964766080c29ea7b2b41 *gd1983-05-15d1t02.flac
c89d1ede67e6b2f62b0d3d3fc2a12919 *gd1983-05-15d1t03.flac
35d589f2e02ff93f4c66661498fe2643 *gd1983-05-15d1t04.flac
2acfa563c842d11fb7db358828c6724f *gd1983-05-15d1t05.flac
594b8e47e5dee9bf3c6535f66ee99131 *gd1983-05-15d1t06.flac
5b98b75283192633cd837870951475d4 *gd1983-05-15d1t07.flac
a00367f70ef54be4813182332f3e2ede *gd1983-05-15d1t08.flac
b740b5dde3ef35f1104a56ea8b09cd56 *gd1983-05-15d1t09.flac
13efab51c17b15acb071f1df434a0f4b *gd1983-05-15d1t10.flac
b2e5757e955f8b946b4d49665d839369 *gd1983-05-15d1t11.flac
5b521fb282bdf266383f3dacfc9d5498 *gd1983-05-15d1t12.flac
9fe0746160bbb2e5ae6fde685d55ba68 *gd1983-05-15d2t01.flac
16fe58403a7dab5c500c023999b15e1b *gd1983-05-15d2t02.flac
488da0b29d03fc00d3ada043fc849f00 *gd1983-05-15d2t03.flac
acb889ab555efa1033b80840f2c17b69 *gd1983-05-15d2t04.flac
e7312a9ca17860b0227e3f1e0e9775b2 *gd1983-05-15d2t05.flac
8baff25cf76f8da2f926a8e8a8462cdb *gd1983-05-15d2t06.flac
256195b8943942dcc8c9c842797e92ef *gd1983-05-15d2t07.flac
2bccccc0542d69268eec79e318ad522a *gd1983-05-15d2t08.flac
f346189b3067a918d86f429933c1e067 *gd1983-05-15d3t01.flac
b446d83f2fcee8c8cfacb9b0ebf79524 *gd1983-05-15d3t02.flac
e3864073dbaec1a26f1a7e4f8e624298 *gd1983-05-15d3t03.flac
2f0ec620122cc4781abde8889df7372e *gd1983-05-15d3t04.flac
ecf7fa690f40de2890d808ccc1d2c3e9 *gd1983-05-15d3t05.flac
7a77c2f2591ecc9755424e1dc7f80406 *gd1983-05-15d3t06.flac

Comments
Add Comment
Other Sources (comments)
FOB Aud Sony ECM 220T >... (0) flac16; Set 2 ONLY;... (0) flac16; Recording... (0) flac16; Recording... (0)
Date User Comment