Browse Collections Artists Sources   Search Dates

Add Show    List Management    Help


Grateful Dead 05/14/83
Greek Theatre, U. Of California, Berkeley, CA
Comments Add Comment    Source Collectors    Add to Collection    Add to Want List    History
Source # 96570 Other Sources
Entered by Steve Swartz
Checksums flac-md5 , ffp
Disc Counts 3 / 3
Media Size
Date Circulated
Date Added
12/27/2008
12/27/2008
Source Summary flac16; Source: Audience Recording Lineage: 3 Nak 700's (L & R Cardiods, Center Omni - 3 DB Low Pass filter)> -15 db pads > 3 mic mixer Preamp> Patchbay > Sony D6 > MAC (Dolby B ) > CR-5A > HD-P2 > 24/96 Wave > Adobe Audition > Wavelab with iZotope Ozone and Waves RBass > iZotope RX Advanced > 16/44.1 wave > CD Wave > TLH > flac16; Taped by the anonymous taper, Jamie Poris, and the many others 
  Archive
Source Information - Download Text | Download Zip
Grateful Dead
Greek Theatre, University of California
Berkeley, CA
05/14/1983

Source: Audience Recording
Lineage: 3 Nak 700's (L & R Cardiods, Center Omni - 3 DB Low Pass filter)> -15 db pads >  3 mic mixer Preamp> Patchbay >
                  Sony D6 > MAC (Dolby B ) > CR-5A > HD-P2 >  24/96 Wave > Adobe Audition > Wavelab with iZotope Ozone and
                  Waves RBass > iZotope RX Advanced > 16/44.1 wave > CD Wave > TLH > flac16


Disc 1
set I

01   tuning
02   Feel Like a Stranger
03   crowd/tuning
04   Friend of the Devil
05   Me And My Uncle >
06   Mexicali Blues
07   Happy Birthday Billy
08   Tennessee Jed
09   Brother Esau
10   Bertha


Disc 2
set II

01   tuning
02   Shakedown Street
03   Playing in the Band >
04   China Doll >
05   jam >
06   Drums >
07   Space >


Disc 2
set II cont'd

01   The Wheel >
02   Playing in the Band >
03   Morning Dew >
04   Sugar Magnolia

encore

       One More Saturday Night {missing}



Notes:

- crossfades after Mexicali Blues and Tennessee Jed
- the bass on this recording was extremely heavy and has been toned down.  There is some distortion
   from time to time, and it's especially noticeable during the first few seconds of Feel Like A Stranger
- seamless change between discs 2 and 3

patches:

Happy Birthday Billy 0:37 - 0:53
Drums 3:45 - 3:53

patch source: (FOB) Sony ECM-220T -> Cassette Master (Sony TC-D5M/Fuji Metal Tape/Dolby B) (shnid 94515)

---------------------------------------------------------

- Taped by the anonymous taper, Jamie Poris, and the many other friends that made these happen

- Transferred  by BGreen (The Cloak Maker)

- Edited by SIRMick

- First seeded to www.shnflac.net December 2008

- Brought To You By Live Music Preservation Project

- Have questions/comments, contact [email protected]


-----------------------------------------------------------

Shntool output:

    length     expanded size   cdr  WAVE problems filename
     1:05.47       11576588    ---   --   ---xx   gd1983-05-14d1t01.flac
     7:58.27       84382748    ---   --   ---xx   gd1983-05-14d1t02.flac
     1:41.51       17936396    ---   --   ---xx   gd1983-05-14d1t03.flac
    10:10.33      107681660    ---   --   ---xx   gd1983-05-14d1t04.flac
     3:16.01       34576796    ---   --   ---xx   gd1983-05-14d1t05.flac
     5:02.24       53329292    ---   --   ---xx   gd1983-05-14d1t06.flac
     1:39.31       17536556    ---   --   ---xx   gd1983-05-14d1t07.flac
     8:58.57       95037308    ---   --   ---xx   gd1983-05-14d1t08.flac
     5:29.02       58040348    ---   --   ---xx   gd1983-05-14d1t09.flac
     6:35.42       69776828    ---   --   ---xx   gd1983-05-14d1t10.flac
     0:24.45        4339484    ---   --   ---xx   gd1983-05-14d2t01.flac
    12:45.31      135018956    ---   --   ---xx   gd1983-05-14d2t02.flac
    12:32.34      132732812    ---   --   ---xx   gd1983-05-14d2t03.flac
     4:58.24       52623692    ---   --   ---xx   gd1983-05-14d2t04.flac
     6:08.23       64969340    ---   --   ---xx   gd1983-05-14d2t05.flac
     6:47.29       71863052    ---   --   ---xx   gd1983-05-14d2t06.flac
     6:49.30       72218204    ---   --   ---xx   gd1983-05-14d2t07.flac
     7:04.41       74890076    ---   --   ---xx   gd1983-05-14d3t01.flac
     3:49.56       40527356    ---   --   ---xx   gd1983-05-14d3t02.flac
     9:58.53      105611900    ---   --   ---xx   gd1983-05-14d3t03.flac
    11:28.39      121454972    ---   --   ---xx   gd1983-05-14d3t04.flac
   134:44.45     1426124364 B                     (totals for 21 files, 0.4967 overall compression ratio)
Show Checksums
flac-md5
539aa27a48e7c368c9ef3fd1d2beb6b2 *gd1983-05-14d1t01.flac
607200ef6e7a29062467e026cce979c3 *gd1983-05-14d1t02.flac
a244cbf784d94448255d9e0d7d2b61f1 *gd1983-05-14d1t03.flac
420276a0c1e33404e16d44e8cdd5a6bf *gd1983-05-14d1t04.flac
b504ed3af28eab945862a478969e01a5 *gd1983-05-14d1t05.flac
e4a0d6b74ebe19d92f17a2a3f5997a2f *gd1983-05-14d1t06.flac
05b31bb7f91ebfee058c989ebc4f0da1 *gd1983-05-14d1t07.flac
d98253361b2a99930084db9d6f5b24ca *gd1983-05-14d1t08.flac
0032d32b20dace0104648ff5980b4b02 *gd1983-05-14d1t09.flac
2792d5c74e248dfceb5120fc3b66633e *gd1983-05-14d1t10.flac
647626fb853561bec60f418f7496e55d *gd1983-05-14d2t01.flac
9e2c6ab1f6be3d5e40ed8f62daffc7d1 *gd1983-05-14d2t02.flac
c6b756e40e1d26da885991289ff5b643 *gd1983-05-14d2t03.flac
0d86af3129f96ee2f9c0c0ae4581c4a8 *gd1983-05-14d2t04.flac
5c2d4ee4cb89089c3c751ad65c053f4a *gd1983-05-14d2t05.flac
57820162c937359f60b1c1aa20879b6c *gd1983-05-14d2t06.flac
89af8286f368bb73c6f26af3261ef93d *gd1983-05-14d2t07.flac
468a13cc5d18a79dc5485c1a3fae188f *gd1983-05-14d3t01.flac
f7fcd0a495a29423f371b064c8da6a83 *gd1983-05-14d3t02.flac
a4a845621a94a09292a5447872512b55 *gd1983-05-14d3t03.flac
f904b72585c9644a7f8f6d81473879d8 *gd1983-05-14d3t04.flac
ffp
gd1983-05-14d1t01.flac:b59032cf75319af0de975492a6a1fbcb
gd1983-05-14d1t02.flac:8bd993097ffbe923c2c8e0a0bce95a17
gd1983-05-14d1t03.flac:077dcc4a963d85f1cd258e4e51c012d8
gd1983-05-14d1t04.flac:a3b42a78f87e1b9e0dd8804b3f9ef56a
gd1983-05-14d1t05.flac:a531059362ba767fe6e2674ba85809d5
gd1983-05-14d1t06.flac:1a44770d8544cd995ab3aa550eb02977
gd1983-05-14d1t07.flac:54887323fa7b9ccc50caaca76bef8e50
gd1983-05-14d1t08.flac:753cf6311b86371fde4284bef5a03856
gd1983-05-14d1t09.flac:e53848dc8ffc129396286c37d3821df3
gd1983-05-14d1t10.flac:ccb1d12becef2dae7f716b177dacd4e5
gd1983-05-14d2t01.flac:e4caee496f7488c53c1b879a23346424
gd1983-05-14d2t02.flac:fe6afe4f6f4056946229a2fefb2fc183
gd1983-05-14d2t03.flac:9ccf0805248632bbf1af7521d79113ec
gd1983-05-14d2t04.flac:e2b3dfaca9b9e5d870b7e8b091129243
gd1983-05-14d2t05.flac:e41750b7bce73ec54d1baebaaba089d9
gd1983-05-14d2t06.flac:7646c2701e9ab1c3e112a27e90112bfc
gd1983-05-14d2t07.flac:93446eddfb91e94b622daa35a4471064
gd1983-05-14d3t01.flac:304a42460450729fdd64fc009068e057
gd1983-05-14d3t02.flac:af91c52856ded1123cdb17f8850336b9
gd1983-05-14d3t03.flac:47caa74f81bcc885c62cff2bf54c38bb
gd1983-05-14d3t04.flac:fa7b00d27e7ece1d0453102c0a27d4b2

Comments
Add Comment
Other Sources (comments)
FOB: 3 Sennheiser 421's >... (1) FOB: Sennheiser 421's >... (0) FOB Sennheiser 421s>Sony... (0) *Set 1 Only*
...
(1) flac16; Master:... (0) flac16; Set 1 only,... (0) flac16; Recording... (0) flac16; Recording... (0) Source: Audience recording... (1) flac16/48kHz;... (1) flac24/48 Master:... (0) flac16/44.1 ... (0)
Date User Comment